The Hunger Games Mockingjay - Part 1 2014 x264 720p Esub BluRay Dual Audio English Hindi GOPI SAHI

The Hunger Games: Mockingjay - Part 1 (2014)

Katniss Everdeen is in District 13 after she shatters the games forever. Under the leadership of President Coin and the advice of her trusted friends, Katniss spreads her wings as she fights to save Peeta and a nation moved by her courage.

Writers:

Peter Craig (screenplay), Danny Strong (screenplay) |2 more credits »

6.6/10


Directed byFrancis Lawrence
Produced by
Screenplay by
Adaptation by
Based onMockingjay
by Suzanne Collins
Starring
Music byJames Newton Howard
CinematographyJo Willems
Edited by
  • Alan Edward Bell
  • Mark Yoshikawa
Production
company
Distributed byLionsgate
Release date
  • November 4, 2015 (Berlin)
  • November 20, 2015 (United States)
Running time
137 minutes[1][2]
CountryUnited States
LanguageEnglish
Budget$160 million[3]
Box office$658.3 million[4]


The Hunger Games  Mockingjay - Part 1 2014 x264 720p Esub BluRay Dual Audio English Hindi GOPI SAHI

Format                         : Matroska
Format version                 : Version 4
File size                      : 981 MiB
Duration                       : 2 h 2 min
Overall bit rate               : 1 117 kb/s
Movie name                     : The Hunger Games  Mockingjay - Part 1 2014 GOPI SAHI

Video
ID                             : 1
Format                         : AVC
Format/Info                    : Advanced Video Codec
Format profile                 : [email protected]
Format settings                : CABAC / 5 Ref Frames
Format settings, CABAC         : Yes
Format settings, Reference fra : 5 frames
Codec ID                       : V_MPEG4/ISO/AVC
Duration                       : 2 h 2 min
Bit rate                       : 899 kb/s
Width                          : 1 280 pixels
Height                         : 534 pixels
Display aspect ratio           : 2.40:1
Frame rate mode                : Constant
Frame rate                     : 23.976 (24000/1001) FPS
Color space                    : YUV
Chroma subsampling             : 4:2:0
Bit depth                      : 8 bits
Scan type                      : Progressive
Bits/(Pixel*Frame)             : 0.055
Stream size                    : 790 MiB (81%)
Title                          : GOPI SAHI
Writing library                : x264 core 148

Audio #1
ID                             : 2
Format                         : AAC LC
Format/Info                    : Advanced Audio Codec Low Complexity
Codec ID                       : A_AAC-2
Duration                       : 2 h 2 min
Bit rate                       : 96.0 kb/s
Channel(s)                     : 2 channels
Channel layout                 : L R
Sampling rate                  : 48.0 kHz
Frame rate                     : 46.875 FPS (1024 SPF)
Compression mode               : Lossy
Delay relative to video        : 1 s 704 ms
Stream size                    : 84.9 MiB (9%)
Title                          : GOPI SAHI
Language                       : Hindi
Default                        : Yes
Forced                         : No

Audio #2
ID                             : 3
Format                         : AAC LC
Format/Info                    : Advanced Audio Codec Low Complexity
Codec ID                       : A_AAC-2
Duration                       : 2 h 2 min
Bit rate                       : 96.0 kb/s
Channel(s)                     : 2 channels
Channel layout                 : L R
Sampling rate                  : 48.0 kHz
Frame rate                     : 46.875 FPS (1024 SPF)
Compression mode               : Lossy
Delay relative to video        : 19 ms
Stream size                    : 84.7 MiB (9%)
Title                          : GOPI SAHI
Language                       : English

Text #1
Format                         : PGS
Language                       : English

Text #2
Format                         : PGSI

Menu
00:00:00.000                   : :Chapter 1
00:08:43.648                   : :Chapter 2
00:15:02.944                   : :Chapter 3
00:22:56.208                   : :Chapter 4
00:29:52.541                   : :Chapter 5
00:36:45.829                   : :Chapter 6
00:42:35.094                   : :Chapter 7
00:50:34.073                   : :Chapter 8
00:56:31.013                   : :Chapter 9
01:02:15.065                   : :Chapter 10
01:09:27.914                   : :Chapter 11
01:17:37.528                   : :Chapter 12
01:25:10.230                   : :Chapter 13
01:34:20.989                   : :Chapter 14
01:41:33.879                   : :Chapter 15
01:47:20.142                   : :Chapter 16