The Hunger Games Catching Fire 2013 x264 720p Esub BluRay Dual Audio English Hindi GOPI SAHI

The Hunger Games: Catching Fire (2013)

Katniss Everdeen and Peeta Mellark become targets of the Capitol after their victory in the 74th Hunger Games sparks a rebellion in the Districts of Panem.

Writers:

Simon Beaufoy (screenplay), Michael Arndt (screenplay) (as Michael deBruyn) |1 more credit »

7.5/10

Directed byFrancis Lawrence
Produced by
Screenplay by
Based onCatching Fire
by Suzanne Collins
Starring
Music byJames Newton Howard
CinematographyJo Willems
Edited byAlan Edward Bell
Production
company
Distributed byLionsgate
Release date
  • November 11, 2013 (London)
  • November 22, 2013 (United States)
Running time
146 minutes[1]
CountryUnited States
LanguageEnglish
Budget$130–140 million[2][3][4]
Box office$865 million[2]




The Hunger Games Catching Fire 2013 x264 720p Esub BluRay Dual Audio English Hindi GOPI SAHI

Format                         : Matroska
Format version                 : Version 4
File size                      : 1.13 GiB
Duration                       : 2 h 26 min
Overall bit rate               : 1 104 kb/s
Movie name                     : 2. The Hunger Games Catching Fire 2013 IMAX GOPI SAHI

Video
Format                         : AVC
Format/Info                    : Advanced Video Codec
Format profile                 : [email protected]
Format settings                : CABAC / 5 Ref Frames
Format settings, CABAC         : Yes
Format settings, Reference fra : 5 frames
Codec ID                       : V_MPEG4/ISO/AVC
Duration                       : 2 h 26 min
Bit rate                       : 899 kb/s
Width                          : 1 280 pixels
Height                         : 534 pixels
Display aspect ratio           : 2.40:1
Frame rate mode                : Constant
Frame rate                     : 23.976 (24000/1001) FPS
Color space                    : YUV
Chroma subsampling             : 4:2:0
Bit depth                      : 8 bits
Scan type                      : Progressive
Bits/(Pixel*Frame)             : 0.055
Stream size                    : 940 MiB (81%)
Title                          : GOPI SAHI
Writing library                : x264 core 148

Audio #1
Format                         : AAC LC
Duration                       : 2 h 26 min
Bit rate                       : 96.0 kb/s
Channel(s)                     : 2 channels
Channel layout                 : L R
Sampling rate                  : 48.0 kHz
Frame rate                     : 46.875 FPS (1024 SPF)
Compression mode               : Lossy
Delay relative to video        : 1 s 714 ms
Stream size                    : 101 MiB (9%)
Title                          : GOPI SAHI
Language                       : Hindi

Audio #2
Format                         : AAC LC
Duration                       : 2 h 26 min
Bit rate                       : 96.0 kb/s
Channel(s)                     : 2 channels
Channel layout                 : L R
Sampling rate                  : 48.0 kHz
Frame rate                     : 46.875 FPS (1024 SPF)
Compression mode               : Lossy
Delay relative to video        : 19 ms
Stream size                    : 101 MiB (9%)
Title                          : GOPI SAHI
Language                       : English

Text
Format                         : PGS
Language                       : English

Menu
00:00:00.000                   : :Chapter 1
00:10:48.857                   : :Chapter 2
00:17:34.512                   : :Chapter 3
00:26:48.148                   : :Chapter 4
00:33:00.145                   : :Chapter 5
00:42:22.040                   : :Chapter 6
00:51:06.981                   : :Chapter 7
00:58:11.154                   : :Chapter 8
01:03:54.831                   : :Chapter 9
01:11:13.561                   : :Chapter 10
01:22:50.090                   : :Chapter 11
01:33:18.802                   : :Chapter 12
01:45:07.968                   : :Chapter 13
01:55:40.267                   : :Chapter 14
02:08:11.475                   : :Chapter 15
02:17:21.316                   : :Chapter 16