T-34 2019 x264 720p Esub Dual Audio English Hindi GOPI SAHI

T-34 (2018)

TV-14 | |Action, War |1 January 2019 (Russia)

In 1944, a courageous group of Russian soldiers managed to escape from German captivity in a half-destroyed legendary T-34 tank. Those were the times of unforgettable bravery, fierce fighting, unbreakable love, and legendary miracles.

Director:

Aleksey Sidorov

Directed byAleksey Sidorov
Produced by
Written byAleksey Sidorov
Starring
Music by
  • Vadim Maevskiy
  • Aleksandr Turkunov
  • Ivan Burlyaev
  • Dmitriy Noskov
CinematographyMikhail Milashin
Edited by
  • Dmitry Korabelnikov
Production
company
Mars Media Entertainment
Amedia
Burnish Creative
Welldone Production
Distributed byCentral Partnership
Release date
  • January 1, 2019 (Russia)
Running time
139 minutes
CountryRussia
LanguageRussian
Budget600 million rubles
(US$10,000,000)
Box office2,225,624,380 rubles
(US$32,496,903)



Reuploded Old Audio Not Syn .This Rip Audio fULL Sync

T-34 2019 x264 720p Esub Dual Audio English Hindi GOPI SAHI

Format                         : Matroska
Format version                 : Version 4
File size                      : 876 MiB
Duration                       : 1 h 52 min
Overall bit rate               : 1 086 kb/s
Movie name                     : T-34 2019 GOPISAHI

Video
Format                         : AVC
Format/Info                    : Advanced Video Codec
Format profile                 : [email protected]
Format settings                : CABAC / 4 Ref Frames
Format settings, CABAC         : Yes
Format settings, Reference fra : 4 frames
Codec ID                       : V_MPEG4/ISO/AVC
Duration                       : 1 h 52 min
Bit rate                       : 889 kb/s
Width                          : 1 280 pixels
Height                         : 528 pixels
Display aspect ratio           : 2.40:1
Frame rate mode                : Variable
Frame rate                     : 24.000 FPS
Color space                    : YUV
Chroma subsampling             : 4:2:0
Bit depth                      : 8 bits
Scan type                      : Progressive
Bits/(Pixel*Frame)             : 0.055
Stream size                    : 717 MiB (82%)
Title                          : GOPISAHI
Writing library                : x264 core 148 r2748 97eaef2

Audio #1
Format                         : AAC LC
Duration                       : 1 h 52 min
Bit rate                       : 96.0 kb/s
Channel(s)                     : 2 channels
Channel layout                 : L R
Sampling rate                  : 48.0 kHz
Frame rate                     : 46.875 FPS (1024 SPF)
Compression mode               : Lossy
Stream size                    : 78.3 MiB (9%)
Title                          : GOPISAHI
Language                       : English

Audio #2
Format                         : AAC LC
Duration                       : 1 h 52 min
Bit rate                       : 96.0 kb/s
Channel(s)                     : 2 channels
Channel layout                 : L R
Sampling rate                  : 48.0 kHz
Frame rate                     : 46.875 FPS (1024 SPF)
Compression mode               : Lossy
Delay relative to video        : 4 ms
Stream size                    : 77.8 MiB (9%)
Title                          : GOPISAHI
Language                       : Hindi

Text
Language                       : English

Menu
00:00:00.000                   : :1
00:10:22.958                   : :2
00:21:19.374                   : :3
00:31:39.374                   : :4
00:40:15.498                   : :5
00:52:44.289                   : :6
01:01:15.122                   : :7
01:12:00.371                   : :8
01:21:54.037                   : :9
01:30:12.912                   : :10
01:39:50.744                   : :11
01:49:27.035                   : :12