Superman Returns 2006 x264 720p Esub BluRay Dual Audio English Hindi GOPI SAHI

Superman Returns (2006)

PG-13 | |Action, Sci-Fi |28 June 2006 (USA)
Superman returns to Earth after spending five years in space examining his homeworld Krypton. But he finds things have changed while he was gone, and he must once again prove himself important to the world.

Director:

Bryan Singer

Writers:

Michael Dougherty (screenplay), Dan Harris (screenplay) |5 more credits »

6.0/10
265,865

Directed byBryan Singer
Produced by
Screenplay by
Story by
  • Bryan Singer
  • Michael Dougherty
  • Dan Harris
Based onCharacters appearing in comic books published
by DC Comics
Starring
Music by
CinematographyNewton Thomas Sigel
Edited by
Production
company
Distributed byWarner Bros. Pictures
Release date
  • June 21, 2006 (Los Angeles)
  • June 28, 2006 (United States)
Running time
154 minutes
CountryUnited States
LanguageEnglish
Budget
  • $223 million (gross)
  • $204 million (net)
Box office$391.1 million[1]




Superman Returns 2006 x264 720p Esub BluRay Dual Audio English Hindi GOPI SAHI

Format                         : Matroska
Format version                 : Version 4
File size                      : 1.18 GiB
Duration                       : 2 h 34 min
Overall bit rate               : 1 094 kb/s
Movie name                     : Superman Returns 2006 GOPISAHI

Video
Format                         : AVC
Format/Info                    : Advanced Video Codec
Format profile                 : [email protected]
Format settings                : CABAC / 5 Ref Frames
Format settings, CABAC         : Yes
Format settings, Reference fra : 5 frames
Codec ID                       : V_MPEG4/ISO/AVC
Duration                       : 2 h 34 min
Bit rate                       : 899 kb/s
Width                          : 1 280 pixels
Height                         : 534 pixels
Display aspect ratio           : 2.40:1
Frame rate mode                : Constant
Frame rate                     : 23.976 (24000/1001) FPS
Color space                    : YUV
Chroma subsampling             : 4:2:0
Bit depth                      : 8 bits
Scan type                      : Progressive
Bits/(Pixel*Frame)             : 0.055
Stream size                    : 992 MiB (82%)
Title                          : GOPISAHI
Writing library                : x264 core 157 r2935 545de2f

Audio #1
Format                         : AAC LC
Duration                       : 2 h 34 min
Bit rate                       : 96.0 kb/s
Channel(s)                     : 2 channels
Channel layout                 : L R
Sampling rate                  : 48.0 kHz
Frame rate                     : 46.875 FPS (1024 SPF)
Compression mode               : Lossy
Delay relative to video        : 1 s 91 ms
Stream size                    : 106 MiB (9%)
Title                          : GOPISAHI
Language                       : Hindi

Audio #2
Format                         : AAC LC
Duration                       : 2 h 34 min
Bit rate                       : 96.0 kb/s
Channel(s)                     : 2 channels
Channel layout                 : L R
Sampling rate                  : 48.0 kHz
Frame rate                     : 46.875 FPS (1024 SPF)
Compression mode               : Lossy
Delay relative to video        : -21 ms
Stream size                    : 106 MiB (9%)
Title                          : GOPISAHI
Language                       : English

Text
Language                       : English

Menu
00:00:00.000                   : :Prologue and Credits
00:05:04.471                   : :Gertrude's Beneficiary
00:07:34.454                   : :Back on Earth
00:10:46.479                   : :Fortress Intruders
00:16:32.158                   : :Younger Days
00:19:47.019                   : :All That's Left
00:21:29.288                   : :The Daily Planet
00:25:23.355                   : :Seed Needing Water
00:27:26.228                   : :Power Outage
00:31:10.827                   : :Midair Emergency
00:35:08.815                   : :Jumbled Jet
00:38:49.410                   : :Soft Landing
00:41:54.595                   : :Richard and the Munchkin
00:46:48.931                   : :What's So Hard?
00:49:25.379                   : :Outside Looking In
00:53:50.436                   : :Bouncing Bullets
00:56:47.654                   : :A Rescue and a Theft
01:01:14.421                   : :Yesterday's News
01:06:40.330                   : :Tell and Show
01:11:49.472                   : :Taking Lois Up
01:17:12.878                   : :Dire Recovery
01:19:41.777                   : :All Aboard
01:22:58.932                   : :Mind Over Muscle
01:28:53.036                   : :Two Launches
01:32:58.531                   : :Jason's Gift
01:35:49.077                   : :Undersea Disturbance
01:40:09.378                   : :Metropolis Mayhem
01:44:31.223                   : :Rising and Sinking Ship
01:49:28.270                   : :Give Me Your Hand
01:51:51.788                   : :Returning the Favor
01:56:15.760                   : :So Long, Superman
01:58:33.773                   : :Out of the Depths
02:01:54.432                   : :I Have to Go Back
02:04:37.053                   : :Loss of Precious Cargo
02:07:42.780                   : :Fallen Hero
02:11:41.143                   : :Where Else Would I Be?
02:15:46.764                   : :I Wanted to Tell You
02:19:38.161                   : :Atoll for Three
02:20:29.463                   : :Not Alone
02:24:06.429                   : :I'm Always Around
02:26:30.699                   : :End Credits