Street Dancer 3D 2020 X264 720P HD Esub Hindi GOPI SAHI

Street Dancer 3D (2020)

Not Rated | |Drama, Music |24 January 2020 (USA) 
 
A coming-of-age story based on the lives of street dancers.

Director:

Remo D'Souza

Writer:

Farhad Samji
3.6/10
3,892

Directed byRemo D'Souza
Produced byBhushan Kumar
Krishan Kumar
Lizelle D'Souza
Written byDialogues:
Farhad Samji
Jagdeep Sidhu
Screenplay byTushar Hiranandani
Jagdeep Sidhu
Story byRemo D'Souza
StarringVarun Dhawan
Shraddha Kapoor
Prabhu Deva
Nora Fatehi
Music bySongs:
Sachin–Jigar
Tanishk Bagchi
Badshah
Guru Randhawa
Gurinder Seagal
Harsh Upadhyay
Score:
Sachin–Jigar
CinematographyVijay Kumar Arora
Edited byManan Ajay Sagar
Production
company
T-Series
Remo D'Souza Entertainment
Distributed byAA Films
Release date
  • 24 January 2020
Running time
141 minutes[1]
CountryIndia
LanguageHindi
Budget70 crore[2]
Box office97 crore[3]

Street Dancer 3D 2020 x264 720p HD Esub Hindi GOPI SAHI

Format                         : Matroska
Format version                 : Version 4
File size                      : 1 006 MiB
Duration                       : 2 h 21 min
Overall bit rate               : 997 kb/s
Movie name                     : Street Dancer 3D 2020 GOPISAHI

Video
Format                         : AVC
Format/Info                    : Advanced Video Codec
Format profile                 : [email protected]
Format settings                : CABAC / 12 Ref Frames
Format settings, CABAC         : Yes
Format settings, Reference fra : 12 frames
Codec ID                       : V_MPEG4/ISO/AVC
Duration                       : 2 h 21 min
Bit rate                       : 899 kb/s
Width                          : 1 280 pixels
Height                         : 534 pixels
Display aspect ratio           : 2.40:1
Frame rate mode                : Constant
Frame rate                     : 24.000 FPS
Color space                    : YUV
Chroma subsampling             : 4:2:0
Bit depth                      : 8 bits
Scan type                      : Progressive
Bits/(Pixel*Frame)             : 0.055
Stream size                    : 907 MiB (90%)
Title                          : GOPISAHI
Writing library                : x264 core 157 r2935 545de2f

Audio
Format                         : AAC LC
Duration                       : 2 h 21 min
Bit rate                       : 96.0 kb/s
Channel(s)                     : 2 channels
Channel layout                 : L R
Sampling rate                  : 48.0 kHz
Frame rate                     : 46.875 FPS (1024 SPF)
Compression mode               : Lossy
Delay relative to video        : -21 ms
Stream size                    : 96.7 MiB (10%)
Title                          : GOPISAHI
Language                       : Hindi

Text
Language                       : English