Star Trek Into Darkness 2013 IMAX x264 720p Esub BluRay Dual Audio English Hindi GOPI SAHI

Star Trek Into Darkness (2013)

After the crew of the Enterprise find an unstoppable force of terror from within their own organization, Captain Kirk leads a manhunt to a war-zone world to capture a one-man weapon of mass destruction.

Director:

J.J. Abrams
Directed byJ. J. Abrams
Produced by
Written by
  • Roberto Orci
  • Alex Kurtzman
  • Damon Lindelof
Based onStar Trek
by Gene Roddenberry
Starring
Music byMichael Giacchino
CinematographyDan Mindel
Edited by
Production
company
Distributed byParamount Pictures
Release date
  • April 23, 2013 (Sydney)
  • May 17, 2013 (United States)[1]
Running time
133 minutes[2]
CountryUnited States
LanguageEnglish
Budget$185–190 million[3][4]
Box office$467.4 million[4]




Star Trek Into Darkness 2013 IMAX x264 720p Esub BluRay Dual Audio English Hindi GOPI SAHI

Format                         : Matroska
Format version                 : Version 4
File size                      : 1.01 GiB
Duration                       : 2 h 12 min
Overall bit rate               : 1 094 kb/s
Movie name                     : Star Trek Into Darkness 2013 IMAX GOPISAHI

Video
Format                         : AVC
Format/Info                    : Advanced Video Codec
Format profile                 : [email protected]
Format settings                : CABAC / 5 Ref Frames
Format settings, CABAC         : Yes
Format settings, Reference fra : 5 frames
Codec ID                       : V_MPEG4/ISO/AVC
Duration                       : 2 h 12 min
Bit rate                       : 899 kb/s
Width                          : 1 280 pixels
Height                         : 534 pixels
Display aspect ratio           : 2.40:1
Frame rate mode                : Constant
Frame rate                     : 23.976 (24000/1001) FPS
Color space                    : YUV
Chroma subsampling             : 4:2:0
Bit depth                      : 8 bits
Scan type                      : Progressive
Bits/(Pixel*Frame)             : 0.055
Stream size                    : 849 MiB (82%)
Title                          : GOPISAHI
Writing library                : x264 core 157 r2935 545de2f

Audio #1
Format                         : AAC LC
Duration                       : 2 h 12 min
Bit rate                       : 96.0 kb/s
Channel(s)                     : 2 channels
Channel layout                 : L R
Sampling rate                  : 48.0 kHz
Frame rate                     : 46.875 FPS (1024 SPF)
Compression mode               : Lossy
Delay relative to video        : -17 ms
Stream size                    : 91.2 MiB (9%)
Title                          : GOPISAHI
Language                       : Hindi

Audio #2
Format                         : AAC LC
Duration                       : 2 h 12 min
Bit rate                       : 96.0 kb/s
Channel(s)                     : 2 channels
Channel layout                 : L R
Sampling rate                  : 48.0 kHz
Frame rate                     : 46.875 FPS (1024 SPF)
Compression mode               : Lossy
Delay relative to video        : -21 ms
Stream size                    : 91.2 MiB (9%)
Title                          : GOPISAHI
Language                       : English

Text
Language                       : English

Menu
00:00:00.000                   : :Chapter 1
00:10:20.370                   : :Chapter 2
00:19:21.494                   : :Chapter 3
00:30:03.969                   : :Chapter 4
00:40:09.324                   : :Chapter 5
00:46:05.304                   : :Chapter 6
00:56:38.395                   : :Chapter 7
01:06:35.825                   : :Chapter 8
01:12:55.663                   : :Chapter 9
01:22:45.836                   : :Chapter 10
01:30:54.741                   : :Chapter 11
01:38:36.369                   : :Chapter 12
01:47:09.715                   : :Chapter 13
01:54:17.142                   : :Chapter 14
01:59:20.904                   : :Chapter 15
02:03:18.308                   : :Chapter 16