Shubh Mangal Zyada Saavdhan 2020 x264 720p HD Esub Hindi GOPI SAHI

Shubh Mangal Zyada Saavdhan (2020)

 
The road to achieving a happy ending is a little too rough for two guys Kartik and Aman. While Aman's family tries hard to battle his love for Kartik, Kartik isn't prepared to step back until he marries Aman.

Director:

Hitesh Kewalya

6.5/10

Directed byHitesh Kewalya
Produced byAanand L. Rai
Bhushan Kumar
Himanshu Sharma
Krishan Kumar
Written byHitesh Kewalya
StarringAyushmann Khurrana
Jitendra Kumar
Neena Gupta
Gajraj Rao
Music bySongs:
Tanishk Bagchi
Vayu
Tony Kakkar
Score:
Karan Kulkarni
CinematographyChirantan Das
Edited byNinad Khanolkar
Production
company
Distributed byAA Films
Release date
  • 21 February 2020
Running time
117 minutes[1]
CountryIndia
LanguageHindi
Box officeest. 86.39 crore[2]

 Shubh Mangal Zyada Saavdhan 2020 x264 720p HD Esub Hindi GOPI SAHI

Format                         : Matroska
Format version                 : Version 4
File size                      : 839 MiB
Duration                       : 1 h 57 min
Overall bit rate               : 998 kb/s
Movie name                     : Shubh Mangal Zyada Saavdhan 2020 GOPISAHI
Encoded date                   : UTC 2020-04-18 08:11:16

Video
ID                             : 1
Format                         : AVC
Format/Info                    : Advanced Video Codec
Format profile                 : [email protected]
Format settings                : CABAC / 5 Ref Frames
Format settings, CABAC         : Yes
Format settings, Reference fra : 5 frames
Codec ID                       : V_MPEG4/ISO/AVC
Duration                       : 1 h 57 min
Bit rate                       : 899 kb/s
Width                          : 1 268 pixels
Height                         : 528 pixels
Display aspect ratio           : 2.40:1
Frame rate mode                : Constant
Frame rate                     : 24.000 FPS
Color space                    : YUV
Chroma subsampling             : 4:2:0
Bit depth                      : 8 bits
Scan type                      : Progressive
Bits/(Pixel*Frame)             : 0.056
Stream size                    : 756 MiB (90%)
Title                          : GOPISAHI
Writing library                : x264 core 157 r2935 545de2f

Audio
Format                         : AAC LC
Duration                       : 1 h 57 min
Bit rate                       : 96.0 kb/s
Channel(s)                     : 2 channels
Channel layout                 : L R
Sampling rate                  : 48.0 kHz
Frame rate                     : 46.875 FPS (1024 SPF)
Compression mode               : Lossy
Delay relative to video        : -21 ms
Stream size                    : 81.2 MiB (10%)
Title                          : GOPISAHI
Language                       : Hindi

TextI
Language                       : English