Prometheus 2012 x264 720p Esub BluRay Dual Audio English Hindi Telugu Tamil GOPI SAHI

Prometheus (2012)

Following clues to the origin of mankind, a team finds a structure on a distant moon, but they soon realize they are not alone.

Director:

Ridley Scott


7.0/10


Directed byRidley Scott
Produced by
Written by
Starring
Music byMarc Streitenfeld
CinematographyDariusz Wolski
Edited byPietro Scalia
Production
company
Distributed by20th Century Fox
Release date
  • April 11, 2012 (Paris)
  • June 1, 2012 (United Kingdom)
  • June 8, 2012 (United States)
Running time
124 minutes[1]
Country
  • United Kingdom
  • United States
LanguageEnglish
Budget$120–130 million[2]
Box office$403.4 million[3]






Prometheus 2012 x264 720p Esub BluRay Dual Audio English Hindi Telugu Tamil GOPI SAHI

Format                         : Matroska
Format version                 : Version 4
File size                      : 1.13 GiB
Duration                       : 2 h 3 min
Overall bit rate               : 1 302 kb/s
Movie name                     : Prometheus 2012 GOPI SAHI

Video
Format                         : AVC
Format/Info                    : Advanced Video Codec
Format profile                 : [email protected]
Format settings                : CABAC / 5 Ref Frames
Format settings, CABAC         : Yes
Format settings, Reference fra : 5 frames
Codec ID                       : V_MPEG4/ISO/AVC
Duration                       : 2 h 3 min
Bit rate                       : 899 kb/s
Width                          : 1 280 pixels
Height                         : 534 pixels
Display aspect ratio           : 2.40:1
Frame rate mode                : Constant
Frame rate                     : 23.976 (24000/1001) FPS
Color space                    : YUV
Chroma subsampling             : 4:2:0
Bit depth                      : 8 bits
Scan type                      : Progressive
Bits/(Pixel*Frame)             : 0.055
Stream size                    : 796 MiB (69%)
Title                          : GOPI SAHI
Writing library                : x264 core 148

Audio #1
Format                         : AAC LC
Duration                       : 2 h 3 min
Bit rate                       : 96.0 kb/s
Channel(s)                     : 2 channels
Channel layout                 : L R
Sampling rate                  : 48.0 kHz
Frame rate                     : 46.875 FPS (1024 SPF)
Compression mode               : Lossy
Delay relative to video        : -64 ms
Stream size                    : 85.4 MiB (7%)
Title                          : GOPI SAHI
Language                       : Hindi

Audio #2
Format                         : AAC LC
Duration                       : 2 h 3 min
Bit rate                       : 96.0 kb/s
Channel(s)                     : 2 channels
Channel layout                 : L R
Sampling rate                  : 48.0 kHz
Frame rate                     : 46.875 FPS (1024 SPF)
Compression mode               : Lossy
Delay relative to video        : -64 ms
Stream size                    : 85.5 MiB (7%)
Title                          : GOPI SAHI
Language                       : English

Audio #3
Format                         : AAC LC
Duration                       : 2 h 3 min
Bit rate                       : 96.0 kb/s
Channel(s)                     : 2 channels
Channel layout                 : L R
Sampling rate                  : 48.0 kHz
Frame rate                     : 46.875 FPS (1024 SPF)
Compression mode               : Lossy
Delay relative to video        : -64 ms
Stream size                    : 85.4 MiB (7%)
Title                          : GOPI SAHI
Language                       : Tamil

Audio #4
Format                         : AAC LC
Duration                       : 2 h 3 min
Bit rate                       : 96.0 kb/s
Channel(s)                     : 2 channels
Channel layout                 : L R
Sampling rate                  : 48.0 kHz
Frame rate                     : 46.875 FPS (1024 SPF)
Compression mode               : Lossy
Delay relative to video        : -64 ms
Stream size                    : 85.4 MiB (7%)
Title                          : GOPI SAHI
Language                       : Telugu

Text #1
Format                         : PGS
Language                       : English

Text #2
Format                         : PGS
Language                       : Hindi

Text #3
Format                         : PGS
Language                       : Tamil

Text #4
Format                         : PGS
Language                       : Telugu