Prince Of Persia The Sands of Time 2010 x264 720p Bluray Dual Audio English Hindi Telugu Tamil GOPI SAHI

Prince of Persia: The Sands of Time (2010)

 
A young fugitive Prince and Princess must stop a villain who unknowingly threatens to destroy the world with a special dagger that enables the magic sand inside to reverse time.

Director:

Mike Newell

Writers:

Boaz Yakin (screenplay), Doug Miro (screenplay) |3 more credits »

6.6/10
264,094

Directed byMike Newell
Produced byJerry Bruckheimer
Screenplay by
Story byJordan Mechner
Based onPrince of Persia
by Jordan Mechner
Starring
Music byHarry Gregson-Williams
CinematographyJohn Seale
Edited by
Production
companies
Distributed byWalt Disney Studios
Motion Pictures
Release date
  • May 9, 2010 (London premiere)
  • May 28, 2010 (United States)
Running time
116 minutes
CountryUnited States
LanguageEnglish
Budget$150 million[1]
Box office$336.4 million[2]




Prince Of Persia The Sands of Time 2010 x264 720p Bluray Dual Audio English Hindi Telugu Tamil GOPI SAHI

Format                                   : Matroska
Format version                           : Version 4 / Version 2
File size                                : 1.04 GiB
Duration                                 : 1 h 56 min
Overall bit rate                         : 1 277 kb/s
Movie name                               : Prince Of Persia The Sands of Time 2010 GOPI SAHI

Video
Format                                   : AVC
Format/Info                              : Advanced Video Codec
Format profile                           : [email protected]
Format settings                          : CABAC / 5 Ref Frames
Format settings, CABAC                   : Yes
Format settings, ReFrames                : 5 frames
Codec ID                                 : V_MPEG4/ISO/AVC
Duration                                 : 1 h 55 min
Bit rate                                 : 899 kb/s
Width                                    : 1 280 pixels
Height                                   : 534 pixels
Display aspect ratio                     : 2.40:1
Frame rate mode                          : Constant
Frame rate                               : 23.976 (24000/1001) FPS
Color space                              : YUV
Chroma subsampling                       : 4:2:0
Bit depth                                : 8 bits
Scan type                                : Progressive
Bits/(Pixel*Frame)                       : 0.055
Stream size                              : 745 MiB (70%)
Title                                    : GOPISAHI
Writing library                          : x264 core 148

Audio #1
Format                                   : AAC
Duration                                 : 1 h 55 min
Bit rate                                 : 96.0 kb/s
Channel(s)                               : 2 channels
Channel positions                        : Front: L R
Sampling rate                            : 48.0 kHz
Frame rate                               : 46.875 FPS (1024 SPF)
Compression mode                         : Lossy
Delay relative to video                  : -21 ms
Stream size                              : 79.9 MiB (7%)
Title                                    : GOPISAHI
Language                                 : Hindi

Audio #2
Format                                   : AAC
Duration                                 : 1 h 55 min
Bit rate                                 : 96.0 kb/s
Channel(s)                               : 2 channels
Channel positions                        : Front: L R
Sampling rate                            : 48.0 kHz
Frame rate                               : 46.875 FPS (1024 SPF)
Compression mode                         : Lossy
Delay relative to video                  : -21 ms
Stream size                              : 79.9 MiB (7%)
Title                                    : GOPISAHI
Language                                 : English

Audio #3
Format                                   : AAC
Duration                                 : 1 h 56 min
Bit rate                                 : 96.0 kb/s
Channel(s)                               : 2 channels
Channel positions                        : Front: L R
Sampling rate                            : 48.0 kHz
Frame rate                               : 46.875 FPS (1024 SPF)
Compression mode                         : Lossy
Delay relative to video                  : 979 ms
Stream size                              : 80.0 MiB (7%)
Title                                    : GOPISAHI
Language                                 : Tamil

Audio #4
Format                                   : AAC
Codec ID                                 : A_AAC-2
Duration                                 : 1 h 56 min
Bit rate                                 : 96.0 kb/s
Channel(s)                               : 2 channels
Channel positions                        : Front: L R
Sampling rate                            : 48.0 kHz
Frame rate                               : 46.875 FPS (1024 SPF)
Compression mode                         : Lossy
Delay relative to video                  : 979 ms
Stream size                              : 80.0 MiB (7%)
Title                                    : GOPISAHI
Language                                 : Telugu