Planet of the Apes 2001 720p x264 Esub BluRay Dual Audio English Hindi GOPI SAHI

Planet of the Apes (2001)

In 2029, an Air Force astronaut crash-lands on a mysterious planet where evolved, talking apes dominate a race of primitive humans.

Director:

Tim Burton

Writers:

Pierre Boulle (novel), William Broyles Jr. (screenplay) |2 more credits »
5.7/10

Directed byTim Burton
Produced by
Screenplay by
Based onPlanet of the Apes
by Pierre Boulle
Starring
Music byDanny Elfman
CinematographyPhilippe Rousselot
Edited by
Production
company
Distributed by20th Century Fox
Release date
  • July 27, 2001
Running time
120 minutes[1]
CountryUnited States
LanguageEnglish
Budget$100 million[2]
Box office$362.2 million[2]


Planet of the Apes 2001 720p x264 Esub BluRay Dual Audio English Hindi GOPI SAHI

Format                                   : Matroska
Format version                           : Version 4 / Version 2
File size                                : 939 MiB
Duration                                 : 1 h 59 min
Overall bit rate                         : 1 094 kb/s
Movie name                               : Planet of the Apes 2001 GOPI SAHI

Video
Format                                   : AVC
Format/Info                              : Advanced Video Codec
Format profile                           : [email protected]
Format settings                          : CABAC / 5 Ref Frames
Format settings, CABAC                   : Yes
Format settings, ReFrames                : 5 frames
Codec ID                                 : V_MPEG4/ISO/AVC
Duration                                 : 1 h 59 min
Bit rate                                 : 899 kb/s
Width                                    : 1 280 pixels
Height                                   : 544 pixels
Display aspect ratio                     : 2.35:1
Frame rate mode                          : Constant
Frame rate                               : 23.976 (24000/1001) FPS
Color space                              : YUV
Chroma subsampling                       : 4:2:0
Bit depth                                : 8 bits
Scan type                                : Progressive
Bits/(Pixel*Frame)                       : 0.054
Stream size                              : 771 MiB (82%)
Title                                    : GOPI SAHI
Writing library                          : x264 core 148

Audio #1
Format                                   : AAC
Format/Info                              : Advanced Audio Codec
Format profile                           : LC
Codec ID                                 : A_AAC-2
Duration                                 : 1 h 59 min
Bit rate                                 : 96.0 kb/s
Channel(s)                               : 2 channels
Channel positions                        : Front: L R
Sampling rate                            : 48.0 kHz
Frame rate                               : 46.875 FPS (1024 SPF)
Compression mode                         : Lossy
Delay relative to video                  : -64 ms
Stream size                              : 82.7 MiB (9%)
Title                                    : GOPI SAHI
Language                                 : Hindi

Audio #2
Format                                   : AAC
Duration                                 : 1 h 59 min
Bit rate                                 : 96.0 kb/s
Channel(s)                               : 2 channels
Channel positions                        : Front: L R
Sampling rate                            : 48.0 kHz
Frame rate                               : 46.875 FPS (1024 SPF)
Compression mode                         : Lossy
Delay relative to video                  : -64 ms
Stream size                              : 82.8 MiB (9%)
Title                                    : GOPI SAHI
Language                                 : English

Text
Title                                    : GOPI SAHI