Parasite 2019 x264 720p Esub BluRay Dual Audio Kor Hindi GOPI SAHI

Parasite (2019)

Gisaengchung (original title)
 
A poor family, the Kims, con their way into becoming the servants of a rich family, the Parks. But their easy life gets complicated when their deception is threatened with exposure.

Director:

Bong Joon Ho

Writers:

Bong Joon Ho (story), Bong Joon Ho (screenplay) |1 more credit »
8.6/10


Hangul기생충
Hanja寄生蟲
Revised RomanizationGisaengchung
McCune–ReischauerKisaengch'ung
Directed byBong Joon-ho
Produced by
Screenplay by
Story byBong Joon-ho[1]
Starring
Music byJung Jae-il[1]
CinematographyHong Kyung-pyo[2]
Edited byYang Jin-mo
Production
company
Barunson E&A[1]
Distributed by
Release date
  • 21 May 2019 (Cannes)
  • 30 May 2019 (South Korea)
Running time
132 minutes[3][4]
CountrySouth Korea[1][3]
LanguageKorean
Budget₩13.5 billion[5]
(~US$11.4 million)
Box office$266 million[6][7]




Parasite 2019 x264 720p Esub BluRay Dual Audio Kor Hindi GOPI SAHI

Format                         : Matroska
Format version                 : Version 4
File size                      : 1.01 GiB
Duration                       : 2 h 12 min
Overall bit rate               : 1 095 kb/s
Movie name                     : Parasite 2019 GOPISAHI

Video
Format                         : AVC
Format/Info                    : Advanced Video Codec
Format profile                 : [email protected]
Format settings                : CABAC / 12 Ref Frames
Format settings, CABAC         : Yes
Format settings, Reference fra : 12 frames
Codec ID                       : V_MPEG4/ISO/AVC
Duration                       : 2 h 12 min
Bit rate                       : 899 kb/s
Width                          : 1 280 pixels
Height                         : 534 pixels
Display aspect ratio           : 2.40:1
Frame rate mode                : Constant
Frame rate                     : 23.976 (24000/1001) FPS
Color space                    : YUV
Chroma subsampling             : 4:2:0
Bit depth                      : 8 bits
Scan type                      : Progressive
Bits/(Pixel*Frame)             : 0.055
Stream size                    : 849 MiB (82%)
Title                          : GOPISAHI
Writing library                : x264 core 157 r2935 545de2f

Audio #1
Format                         : AAC LC
Duration                       : 2 h 11 min
Bit rate                       : 96.0 kb/s
Channel(s)                     : 2 channels
Channel layout                 : L R
Sampling rate                  : 48.0 kHz
Frame rate                     : 46.875 FPS (1024 SPF)
Compression mode               : Lossy
Delay relative to video        : 3 ms
Stream size                    : 91.0 MiB (9%)
Title                          : GOPISAHI
Language                       : Hindi

Audio #2
Format                         : AAC LC
Duration                       : 2 h 12 min
Bit rate                       : 96.0 kb/s
Channel(s)                     : 2 channels
Channel layout                 : L R
Sampling rate                  : 48.0 kHz
Frame rate                     : 46.875 FPS (1024 SPF)
Compression mode               : Lossy
Stream size                    : 91.1 MiB (9%)
Title                          : GOPISAHI
Language                       : Korean

Text
Language                       : English