Octopussy 1983 x264 720p Esub BluRay Dual Audio Hindi English GOPI SAHI

Octopussy (1983)


A fake Fabergé egg, and a fellow Agent's death, lead James Bond to uncover an international jewel-smuggling operation, headed by the mysterious Octopussy, being used to disguise a nuclear attack on N.A.T.O. forces.

Director:

John Glen

Writers:

George MacDonald Fraser (screen story and screenplay), Richard Maibaum (screen story and screenplay) |1 more credit »
6.6/10


Directed byJohn Glen
Produced byAlbert R. Broccoli
Screenplay byGeorge MacDonald Fraser
Richard Maibaum
Michael G. Wilson
Based onJames Bond
by Ian Fleming
Starring
Music byJohn Barry
CinematographyAlan Hume
Edited byPeter Davies
Henry Richardson
Production
company
Distributed byMetro-Goldwyn-Mayer (United States)
United International Pictures (International)
Release date
  • 6 June 1983
Running time
131 minutes
CountryUnited Kingdom
United States
LanguageEnglish
Budget$27.5 million
Box office$187.5 million






Octopussy 1983 x264 720p Esub BluRayDual Audio Hindi English GOPI SAHI

Format                         : Matroska
Format version                 : Version 4
File size                      : 1.02 GiB
Duration                       : 2 h 10 min
Overall bit rate               : 1 115 kb/s
Movie name                     : Octopussy 1983 GOPI SAHI

Video
Format                         : AVC
Format/Info                    : Advanced Video Codec
Format profile                 : [email protected]
Format settings                : CABAC / 5 Ref Frames
Format settings, CABAC         : Yes
Format settings, Reference fra : 5 frames
Codec ID                       : V_MPEG4/ISO/AVC
Duration                       : 2 h 10 min
Bit rate                       : 899 kb/s
Width                          : 1 280 pixels
Height                         : 544 pixels
Display aspect ratio           : 2.35:1
Frame rate mode                : Constant
Frame rate                     : 23.976 (24000/1001) FPS
Color space                    : YUV
Chroma subsampling             : 4:2:0
Bit depth                      : 8 bits
Scan type                      : Progressive
Bits/(Pixel*Frame)             : 0.054
Stream size                    : 841 MiB (81%)
Title                          : GOPI SAHI
Writing library                : x264 core 148

Audio #1
Format                         : AAC LC
Duration                       : 2 h 10 min
Bit rate                       : 96.0 kb/s
Channel(s)                     : 2 channels
Channel layout                 : L R
Sampling rate                  : 48.0 kHz
Frame rate                     : 46.875 FPS (1024 SPF)
Compression mode               : Lossy
Delay relative to video        : -21 ms
Stream size                    : 90.3 MiB (9%)
Title                          : GOPI SAHI
Language                       : Hindi

Audio #2
Format                         : AAC LC
Duration                       : 2 h 10 min
Bit rate                       : 96.0 kb/s
Channel(s)                     : 2 channels
Channel layout                 : L R
Sampling rate                  : 48.0 kHz
Frame rate                     : 46.875 FPS (1024 SPF)
Compression mode               : Lossy
Delay relative to video        : -21 ms
Stream size                    : 90.1 MiB (9%)
Title                          : GOPI SAHI
Language                       : English

Text #1
Format                         : PGS
Language                       : English

Text #2
ID                             : 5
Language                       : English