MacKenna's Gold 1969 720p Esub BluRay x264 Dual Audio Hindi English GOPI SAHI

Mackenna's Gold (1969)


A bandit kidnaps a Marshal who has seen a map showing a gold vein on Indian lands, but other groups are looking for it too, while the Apache try to keep the secret location undisturbed.

Director:

J. Lee Thompson

Writers:

Heck Allen (novel) (as Will Henry), Carl Foreman (screenplay)
6.8/10
7,581

Directed byJ. Lee Thompson
Produced byCarl Foreman
Dimitri Tiomkin
Screenplay byCarl Foreman
Based onMackenna's Gold
1963 novel
by Will Henry
Starring
Narrated byVictor Jory
Music byQuincy Jones
CinematographyJoseph MacDonald
Edited byBill Lenny
Production
company
Highroad Productions, Inc.
Distributed byColumbia Pictures
Release date
  • May 10, 1969
Running time
128 minutes
CountryUnited States
LanguageEnglish
Budget$7 million
Box office$25 million
 MacKenna's Gold 1969 720p Esub BluRay x264 Dual Audio Hindi English GOPI SAHI

Format                                   : Matroska
Format version                           : Version 4 / Version 2
File size                                : 1 004 MiB
Duration                                 : 2 h 8 min
Overall bit rate                         : 1 095 kb/s
Movie name                               : Mackennas Gold 1969 GOPI SAHI

Video
Format                                   : AVC
Format/Info                              : Advanced Video Codec
Format profile                           : [email protected]
Format settings                          : CABAC / 5 Ref Frames
Format settings, CABAC                   : Yes
Format settings, ReFrames                : 5 frames
Codec ID                                 : V_MPEG4/ISO/AVC
Duration                                 : 2 h 8 min
Bit rate                                 : 899 kb/s
Width                                    : 1 280 pixels
Height                                   : 544 pixels
Display aspect ratio                     : 2.35:1
Frame rate mode                          : Constant
Frame rate                               : 23.976 (24000/1001) FPS
Color space                              : YUV
Chroma subsampling                       : 4:2:0
Bit depth                                : 8 bits
Scan type                                : Progressive
Bits/(Pixel*Frame)                       : 0.054
Stream size                              : 825 MiB (82%)
Title                                    : GOPI SAHI
Writing library                          : x264 core 148

Audio #1
Format                                   : AAC
Format/Info                              : Advanced Audio Codec
Format profile                           : LC
Codec ID                                 : A_AAC-2
Duration                                 : 2 h 8 min
Bit rate                                 : 96.0 kb/s
Channel(s)                               : 2 channels
Channel positions                        : Front: L R
Sampling rate                            : 48.0 kHz
Frame rate                               : 46.875 FPS (1024 SPF)
Compression mode                         : Lossy
Delay relative to video                  : 79 ms
Stream size                              : 88.4 MiB (9%)
Title                                    : GOPI SAHI
Language                                 : Hindi

Audio #2
Format                                   : AAC
Duration                                 : 2 h 8 min
Bit rate                                 : 96.0 kb/s
Channel(s)                               : 2 channels
Channel positions                        : Front: L R
Sampling rate                            : 48.0 kHz
Frame rate                               : 46.875 FPS (1024 SPF)
Compression mode                         : Lossy
Delay relative to video                  : 1 s 729 ms
Stream size                              : 88.3 MiB (9%)
Title                                    : GOPI SAHI
Language                                 : English

Text #1
Language                                 : English

Text #2
Language                                 : English

Menu
00:00:00.000                             : :Chapter 1
00:08:01.815                             : :Chapter 2
00:21:54.814                             : :Chapter 3
00:31:03.695                             : :Chapter 4
00:42:42.518                             : :Chapter 5
00:51:23.789                             : :Chapter 6
01:04:33.078                             : :Chapter 7
01:14:31.926                             : :Chapter 8
01:23:19.077                             : :Chapter 9
01:35:43.863                             : :Chapter 10
01:45:07.927                             : :Chapter 11
01:58:03.285                             : :Chapter 12