Kill Bill - Vol. 2 2004 x264 720p Esub BluRay Dual Audio English Hindi GOPI SAHI

Kill Bill: Vol. 2 (2004)

The Bride continues her quest of vengeance against her former boss and lover Bill, the reclusive bouncer Budd, and the treacherous, one-eyed Elle.

Writers:

Quentin Tarantino, Quentin Tarantino (character The Bride) (as Q) |1 more credit »
8.0/10
655,837

Directed byQuentin Tarantino
Produced byLawrence Bender
Written byQuentin Tarantino
Starring
Music by
CinematographyRobert Richardson
Edited bySally Menke
Production
company
Distributed byMiramax
Release date
Running time
136 minutes
CountryUnited States
LanguageEnglish
Budget$30 million
Box office$152.2 million




Kill Bill - Vol. 2 2004 x264 720p Esub BluRay Dual Audio English Hindi GOPI SAHI

Format                         : Matroska
Format version                 : Version 4
File size                      : 1.06 GiB
Duration                       : 2 h 16 min
Overall bit rate               : 1 105 kb/s
Movie name                     : Kill Bill: Vol. 2 2004 GOPI SAHI

Video
Format                         : AVC
Format/Info                    : Advanced Video Codec
Format profile                 : [email protected]
Format settings                : CABAC / 5 Ref Frames
Format settings, CABAC         : Yes
Format settings, Reference fra : 5 frames
Codec ID                       : V_MPEG4/ISO/AVC
Duration                       : 2 h 16 min
Bit rate                       : 899 kb/s
Width                          : 1 280 pixels
Height                         : 534 pixels
Display aspect ratio           : 2.40:1
Frame rate mode                : Constant
Frame rate                     : 23.976 (24000/1001) FPS
Color space                    : YUV
Chroma subsampling             : 4:2:0
Bit depth                      : 8 bits
Scan type                      : Progressive
Bits/(Pixel*Frame)             : 0.055
Stream size                    : 881 MiB (81%)
Title                          : GOPI SAHI
Writing library                : x264 core 148

Audio #1
Format                         : AAC LC
Duration                       : 2 h 16 min
Bit rate                       : 96.0 kb/s
Channel(s)                     : 2 channels
Channel layout                 : L R
Sampling rate                  : 48.0 kHz
Frame rate                     : 46.875 FPS (1024 SPF)
Compression mode               : Lossy
Delay relative to video        : -21 ms
Stream size                    : 94.4 MiB (9%)
Title                          : GOPI SAHI
Language                       : Hindi

Audio #2
Format                         : AAC LC
Duration                       : 2 h 16 min
Bit rate                       : 96.0 kb/s
Channel(s)                     : 2 channels
Channel layout                 : L R
Sampling rate                  : 48.0 kHz
Frame rate                     : 46.875 FPS (1024 SPF)
Compression mode               : Lossy
Delay relative to video        : -21 ms
Stream size                    : 94.5 MiB (9%)
Title                          : GOPI SAHI
Language                       : English

Text #1
Format                         : PGS
Language                       : English

Text #2
Format                         : PGS
Language                       : English

 Text #3
Format                         : PGS
Language                       : English

Menu
00:00:00.000                   : :"I Am Gonna Kill Bill"
00:02:01.246                   : :Chapter Six: Massacre At Two Pines
00:05:28.411                   : :"Are You Gonna Be Nice?"
00:14:50.890                   : :"That Woman Deserves Her Revenge, And We Deserve To Die"
00:18:08.421                   : :Chapter Seven: The Lonely Grave Of Paula Schultz
00:22:52.913                   : :A Satisfied Mind
00:30:55.604                   : :"This Is For Breaking My Brother's Heart"
00:39:14.227                   : :Chapter Eight: The Cruel Tutelage Of Pai Mei
00:57:33.867                   : :"Ok Pai Mei, Here I Come"
01:03:06.992                   : :Chapter Nine: Elle And I
01:14:42.061                   : :"Bitch, You Don't Have A Future"
01:21:14.119                   : :Last Chapter: Face To Face
01:27:48.346                   : :"Bang, Bang"
01:32:15.155                   : :Emilio's Story
01:40:08.044                   : :Superman Speech
01:49:35.986                   : :Pregnancy Test
01:55:12.572                   : :"You And I Have Unfinished Business"
02:02:08.905                   : :Next Morning
02:04:03.186                   : :End Credits