Jumanji 1995 x264 720p Esub BluRay Dual Audio English Hindi GOPI SAHI

Jumanji (1995)

When two kids find and play a magical board game, they release a man trapped in it for decades--and a host of dangers that can only be stopped by finishing the game.

Director:

Joe Johnston

Writers:

Jonathan Hensleigh (screenplay by), Greg Taylor (screenplay by) |5 more credits »
7.0/10
290,963

Directed byJoe Johnston
Produced by
Screenplay by
Story by
Based onJumanji
by Chris Van Allsburg
Starring
Music byJames Horner
CinematographyThomas E. Ackerman
Edited byRobert Dalva
Production
company
Distributed bySony Pictures Releasing
Release date
  • December 15, 1995
Running time
104 minutes
CountryUnited States
LanguageEnglish
Budget$65 million[1]
Box office$262.8 million[1]




Jumanji 1995 x264 720p Esub BluRay Dual Audio English Hindi GOPI SAHI

Format                         : Matroska
Format version                 : Version 4
File size                      : 815 MiB
Duration                       : 1 h 44 min
Overall bit rate               : 1 094 kb/s
Movie name                     : Jumanji 1995 GOPISAHI

Video
Format                         : AVC
Format/Info                    : Advanced Video Codec
Format profile                 : [email protected]
Format settings                : CABAC / 5 Ref Frames
Format settings, CABAC         : Yes
Format settings, Reference fra : 5 frames
Codec ID                       : V_MPEG4/ISO/AVC
Duration                       : 1 h 44 min
Bit rate                       : 899 kb/s
Width                          : 1 280 pixels
Height                         : 694 pixels
Display aspect ratio           : 1.85:1
Frame rate mode                : Constant
Frame rate                     : 23.976 (24000/1001) FPS
Color space                    : YUV
Chroma subsampling             : 4:2:0
Bit depth                      : 8 bits
Scan type                      : Progressive
Bits/(Pixel*Frame)             : 0.042
Stream size                    : 669 MiB (82%)
Title                          : GOPISAHI
Writing library                : x264 core 157 r2935 545de2f

Audio #1
Format                         : AAC LC
Duration                       : 1 h 44 min
Bit rate                       : 96.0 kb/s
Channel(s)                     : 2 channels
Channel layout                 : L R
Sampling rate                  : 48.0 kHz
Frame rate                     : 46.875 FPS (1024 SPF)
Compression mode               : Lossy
Delay relative to video        : -21 ms
Stream size                    : 71.9 MiB (9%)
Title                          : GOPISAHI
Language                       : Hindi

Audio #2
Format                         : AAC LC
Duration                       : 1 h 44 min
Bit rate                       : 96.0 kb/s
Channel(s)                     : 2 channels
Channel layout                 : L R
Sampling rate                  : 48.0 kHz
Frame rate                     : 46.875 FPS (1024 SPF)
Compression mode               : Lossy
Delay relative to video        : -21 ms
Stream size                    : 71.7 MiB (9%)
Title                          : GOPISAHI
Language                       : English

Text
Language                       : English