Jojo Rabbit 2019 x264 720p Esub BluRay Dual Audio English Hindi GOPI SAHI

Jojo Rabbit (2019)


A young boy in Hitler's army finds out his mother is hiding a Jewish girl in their home.

Director:

Taika Waititi

Writers:

Taika Waititi (screenplay), Christine Leunens (novel)

Directed byTaika Waititi
Produced by
Screenplay byTaika Waititi
Based onCaging Skies
by Christine Leunens
Starring
Music byMichael Giacchino
CinematographyMihai M─âlaimare Jr.
Edited byTom Eagles
Production
company
Distributed byFox Searchlight Pictures
Release date
  • September 8, 2019 (TIFF)
  • October 18, 2019 (United States)
Running time
108 minutes[3]
Country
  • United States[4]
LanguageEnglish
Budget$14 million[5]
Box office$90.3 million[6][7]
 


Jojo Rabbit 2019 x264 720p Esub BluRay Dual Audio English Hindi GOPI SAHI

Format                         : Matroska
Format version                 : Version 4
File size                      : 848 MiB
Duration                       : 1 h 48 min
Overall bit rate               : 1 094 kb/s
Movie name                     : Jojo Rabbit 2019 GOPISAHI

Video
Format                         : AVC
Format/Info                    : Advanced Video Codec
Format profile                 : [email protected]
Format settings                : CABAC / 5 Ref Frames
Format settings, CABAC         : Yes
Format settings, Reference fra : 5 frames
Codec ID                       : V_MPEG4/ISO/AVC
Duration                       : 1 h 48 min
Bit rate                       : 899 kb/s
Width                          : 1 280 pixels
Height                         : 690 pixels
Display aspect ratio           : 1.85:1
Frame rate mode                : Constant
Frame rate                     : 23.976 (24000/1001) FPS
Color space                    : YUV
Chroma subsampling             : 4:2:0
Bit depth                      : 8 bits
Scan type                      : Progressive
Bits/(Pixel*Frame)             : 0.042
Stream size                    : 697 MiB (82%)
Title                          : GOPISAHI
Writing library                : x264 core 157 r2935 545de2f

Audio #1
Format                         : AAC LC
Duration                       : 1 h 48 min
Bit rate                       : 96.0 kb/s
Channel(s)                     : 2 channels
Channel layout                 : L R
Sampling rate                  : 48.0 kHz
Frame rate                     : 46.875 FPS (1024 SPF)
Compression mode               : Lossy
Delay relative to video        : -21 ms
Stream size                    : 74.7 MiB (9%)
Title                          : GOPISAHI
Language                       : Hindi

Audio #2
Format                         : AAC LC
Duration                       : 1 h 48 min
Bit rate                       : 96.0 kb/s
Channel(s)                     : 2 channels
Channel layout                 : L R
Sampling rate                  : 48.0 kHz
Frame rate                     : 46.875 FPS (1024 SPF)
Compression mode               : Lossy
Delay relative to video        : -21 ms
Stream size                    : 74.7 MiB (9%)
Title                          : GOPISAHI
Language                       : English

Text
Language                       : English