Jhalki 2019 X264 720P HD Esub Hindi GOPI SAHI



Jhalki (2019)



In a twinkle of an eye, a life-altering disappearance of her 7-year old kid brother sets Jhalki off on a mission to find him at all costs.

Directors:

Brahmanand S. Singh, Tanvi Jain (co-director)

Writers:

Tanvi Jain, Prakash Jha (story) |2 more credits »
8.3/10
468

Directed byBrahmanand S Siingh
Produced byAnnand Chavan
Brahmanand S Siingh
Screenplay byKamlesh Kunti Singh
Brahmanand S Siingh
Tanvi Jain
Story byPrakash Jha
Brahmanand S Siingh
StarringBoman Irani
Tannishtha Chatterjee
Divya Dutta
Sanjay Suri
Akhilendra Mishra
Joy Sengupta
Govind Namdev
Bachan Pachehra
Aarti Jha
Goraksha Sakpal
Music bySandesh Shandilya
CinematographyRupesh Kumar
Edited bySuresh Pai
Production
company
Mobius Films
Distributed byPanorama Studios
Release date
  • 14 November 2019[1]
CountryIndia
LanguageHindi




Jhalki 2019 x264 720p HD Esub Hindi GOPI SAHI

Format                         : Matroska
Format version                 : Version 4
File size                      : 688 MiB
Duration                       : 1 h 36 min
Overall bit rate               : 997 kb/s
Movie name                     : Jhalki 2019 GOPISAHI

Video
Format                         : AVC
Format/Info                    : Advanced Video Codec
Format profile                 : [email protected]
Format settings                : CABAC / 5 Ref Frames
Format settings, CABAC         : Yes
Format settings, Reference fra : 5 frames
Codec ID                       : V_MPEG4/ISO/AVC
Duration                       : 1 h 36 min
Bit rate                       : 899 kb/s
Width                          : 1 280 pixels
Height                         : 536 pixels
Display aspect ratio           : 2.40:1
Frame rate mode                : Constant
Frame rate                     : 25.000 FPS
Color space                    : YUV
Chroma subsampling             : 4:2:0
Bit depth                      : 8 bits
Scan type                      : Progressive
Bits/(Pixel*Frame)             : 0.052
Stream size                    : 620 MiB (90%)
Title                          : GOPISAHI
Writing library                : x264 core 157 r2935 545de2f

Audio
Format                         : AAC LC
Duration                       : 1 h 36 min
Bit rate                       : 96.0 kb/s
Channel(s)                     : 2 channels
Channel layout                 : L R
Sampling rate                  : 48.0 kHz
Frame rate                     : 46.875 FPS (1024 SPF)
Compression mode               : Lossy
Delay relative to video        : -21 ms
Stream size                    : 66.5 MiB (10%)
Title                          : GOPISAHI
Language                       : Hindi

Text
Language                       : English