Howl 2015 x264 720p Esub BluRay Dual Audio English Hindi Telugu Tamil GOPI SAHI

Howl (2015)

When passengers on a train are attacked by a creature, they must band together in order to survive until morning.

Director:

Paul Hyett

5.4/10

Directed byPaul Hyett
Produced byEd King
Martin Gentles
Written byMark Huckerby
Nick Ostler
StarringEd Speleers
Sean Pertwee
Holly Weston
Shauna Macdonald
Elliot Cowan
Rosie Day
Calvin Dean
Duncan Preston
Ross Mullan
Music byPaul E. Francis
CinematographyAdam Biddle
Edited byAgnieszka Liggett
Distributed byStarchild Pictures
Pathé
Release date
  • 5 August 2015 (Fantasy Filmfest)
Running time
89 minutes
CountryUnited Kingdom
LanguageEnglish





Howl 2015 x264 720p Esub BluRay Dual Audio English Hindi Telugu Tamil GOPI SAHI

Format                         : Matroska
Format version                 : Version 4
File size                      : 852 MiB
Duration                       : 1 h 32 min
Overall bit rate               : 1 289 kb/s
Movie name                     : Howl 2015 GOPI SAHI

Video
Format                         : AVC
Format/Info                    : Advanced Video Codec
Format profile                 : [email protected]
Format settings                : CABAC / 5 Ref Frames
Format settings, CABAC         : Yes
Format settings, Reference fra : 5 frames
Codec ID                       : V_MPEG4/ISO/AVC
Duration                       : 1 h 32 min
Bit rate                       : 899 kb/s
Width                          : 1 280 pixels
Height                         : 534 pixels
Display aspect ratio           : 2.40:1
Frame rate mode                : Constant
Frame rate                     : 24.000 FPS
Color space                    : YUV
Chroma subsampling             : 4:2:0
Bit depth                      : 8 bits
Scan type                      : Progressive
Bits/(Pixel*Frame)             : 0.055
Stream size                    : 594 MiB (70%)
Title                          : GOPI SAHI
Writing library                : x264 core 148

Audio #1
Format                         : AAC LC
Duration                       : 1 h 32 min
Bit rate                       : 96.0 kb/s
Channel(s)                     : 2 channels
Channel layout                 : L R
Sampling rate                  : 44.1 kHz
Frame rate                     : 43.066 FPS (1024 SPF)
Compression mode               : Lossy
Delay relative to video        : -23 ms
Stream size                    : 63.7 MiB (7%)
Title                          : GOPI SAHI
Language                       : Hindi

Audio #2
Format                         : AAC LC
Duration                       : 1 h 32 min
Bit rate                       : 96.0 kb/s
Channel(s)                     : 2 channels
Channel layout                 : L R
Sampling rate                  : 48.0 kHz
Frame rate                     : 46.875 FPS (1024 SPF)
Compression mode               : Lossy
Delay relative to video        : -21 ms
Stream size                    : 63.6 MiB (7%)
Title                          : GOPI SAHI
Language                       : English

Audio #3
Format                         : AAC LC
Duration                       : 1 h 32 min
Bit rate                       : 96.0 kb/s
Channel(s)                     : 2 channels
Channel layout                 : L R
Sampling rate                  : 44.1 kHz
Frame rate                     : 43.066 FPS (1024 SPF)
Compression mode               : Lossy
Delay relative to video        : -23 ms
Stream size                    : 63.7 MiB (7%)
Title                          : GOPI SAHI
Language                       : Tamil

Audio #4
Format                         : AAC LC
Duration                       : 1 h 32 min
Bit rate                       : 96.0 kb/s
Channel(s)                     : 2 channels
Channel layout                 : L R
Sampling rate                  : 44.1 kHz
Frame rate                     : 43.066 FPS (1024 SPF)
Compression mode               : Lossy
Delay relative to video        : -23 ms
Stream size                    : 63.7 MiB (7%)
Title                          : GOPI SAHI
Language                       : Telugu
Default                        : No

Text
Language                       : English

Menu
00:00:00.000                   : :00:00:00.000
00:03:31.625                   : :00:03:31.500
00:11:11.500                   : :00:11:11.500
00:19:36.542                   : :00:19:36.500
00:25:55.625                   : :00:25:55.500
00:35:25.500                   : :00:35:25.500
00:45:29.000                   : :00:45:28.917
00:52:24.667                   : :00:52:24.500
01:00:43.708                   : :01:00:43.500
01:10:11.625                   : :01:10:11.500
01:19:28.500                   : :01:19:28.500
01:28:19.667                   : :01:28:19.500