Grease 2 1982 x264 720p Esub BluRay Dual Audio English Hindi GOPI SAHI

Grease 2 (1982)


A British student at a 1960s American high school must prove himself to the leader of a girls' gang whose members can only date greasers.

Director:

Patricia Birch

Writers:

Ken Finkleman, Jim Jacobs (characters) |1 more credit »
 
4.4/10




Directed byPatricia Birch
Produced by
Written byKen Finkleman
Based onGrease
by Jim Jacobs
Warren Casey
Starring
Music byLouis St. Louis
CinematographyFrank Stanley
Edited byJohn F. Burnett
Production
company
Distributed byParamount Pictures
Release date
  • June 11, 1982
Running time
114 minutes[1]
CountryUnited States
LanguageEnglish
Budget$11.2 million
Box office$15.2 million[2]



Grease 2 1982 x264 720p Esub BluRay Dual Audio English Hindi GOPI SAHI

Format                         : Matroska
Format version                 : Version 4
File size                      : 901 MiB
Duration                       : 1 h 54 min
Overall bit rate               : 1 098 kb/s
Movie name                     : Grease 2 1982 GOPISAHI
Video
Format                         : AVC
Format/Info                    : Advanced Video Codec
Format profile                 : [email protected]
Format settings                : CABAC / 5 Ref Frames
Format settings, CABAC         : Yes
Format settings, Reference fra : 5 frames
Codec ID                       : V_MPEG4/ISO/AVC
Duration                       : 1 h 54 min
Bit rate                       : 899 kb/s
Width                          : 1 280 pixels
Height                         : 544 pixels
Display aspect ratio           : 2.35:1
Frame rate mode                : Constant
Frame rate                     : 23.976 (24000/1001) FPS
Color space                    : YUV
Chroma subsampling             : 4:2:0
Bit depth                      : 8 bits
Scan type                      : Progressive
Bits/(Pixel*Frame)             : 0.054
Stream size                    : 735 MiB (82%)
Title                          : GOPISAHI
Writing library                : x264 core 157 r2935 545de2f

Audio #1
Format                         : AAC LC
Duration                       : 1 h 54 min
Bit rate                       : 96.0 kb/s
Channel(s)                     : 2 channels
Channel layout                 : L R
Sampling rate                  : 48.0 kHz
Frame rate                     : 46.875 FPS (1024 SPF)
Compression mode               : Lossy
Delay relative to video        : 536 ms
Stream size                    : 78.8 MiB (9%)
Title                          : GOPISAHI
Language                       : Hindi

Audio #2
Format                         : AAC LC
Duration                       : 1 h 54 min
Bit rate                       : 96.0 kb/s
Channel(s)                     : 2 channels
Channel layout                 : L R
Sampling rate                  : 48.0 kHz
Frame rate                     : 46.875 FPS (1024 SPF)
Compression mode               : Lossy
Delay relative to video        : -64 ms
Stream size                    : 78.7 MiB (9%)
Title                          : GOPISAHI
Language                       : English

Text
Language                       : English