Glass 2019 x264 720p Esub BluRay Dual Audio English Hindi GOPI SAHI

Glass (2019)

Security guard David Dunn uses his supernatural abilities to track Kevin Wendell Crumb, a disturbed man who has twenty-four personalities.

6.7/10
187,280

Directed byM. Night Shyamalan
Produced by
  • M. Night Shyamalan
  • Jason Blum
  • Marc Bienstock
  • Ashwin Rajan
Written byM. Night Shyamalan
Starring
Music byWest Dylan Thordson
CinematographyMike Gioulakis
Edited by
  • Luke Ciarrocchi
  • Blu Murray
Production
company
Distributed by
Release date
Running time
129 minutes[4]
CountryUnited States
LanguageEnglish
Budget$20 million[5]
Box office$247 million[5]



Glass 2019 x264 720p Esub BluRay Dual Audio English Hindi GOPI SAHI

Format                         : Matroska
Format version                 : Version 4
File size                      : 1 011 MiB
Duration                       : 2 h 9 min
Overall bit rate               : 1 095 kb/s
Movie name                     : Glass 2019 GOPISAHI

Video
Format                         : AVC
Format/Info                    : Advanced Video Codec
Format profile                 : [email protected]
Format settings                : CABAC / 12 Ref Frames
Format settings, CABAC         : Yes
Format settings, Reference fra : 12 frames
Codec ID                       : V_MPEG4/ISO/AVC
Duration                       : 2 h 9 min
Bit rate                       : 899 kb/s
Width                          : 1 280 pixels
Height                         : 536 pixels
Display aspect ratio           : 2.40:1
Frame rate mode                : Constant
Frame rate                     : 23.976 (24000/1001) FPS
Color space                    : YUV
Chroma subsampling             : 4:2:0
Bit depth                      : 8 bits
Scan type                      : Progressive
Bits/(Pixel*Frame)             : 0.055
Stream size                    : 830 MiB (82%)
Title                          : GOPISAHI
Writing library                : x264 core 157 r2935 545de2f

Audio #1
Format                         : AAC LC
Format/Info                    : Advanced Audio Codec Low Complexity
Codec ID                       : A_AAC-2
Duration                       : 2 h 9 min
Bit rate                       : 96.0 kb/s
Channel(s)                     : 2 channels
Channel layout                 : L R
Sampling rate                  : 48.0 kHz
Frame rate                     : 46.875 FPS (1024 SPF)
Compression mode               : Lossy
Delay relative to video        : -1 ms
Stream size                    : 89.2 MiB (9%)
Title                          : GOPISAHI
Language                       : Hindi

Audio #2
Format                         : AAC LC
Duration                       : 2 h 9 min
Bit rate                       : 96.0 kb/s
Channel(s)                     : 2 channels
Channel layout                 : L R
Sampling rate                  : 48.0 kHz
Frame rate                     : 46.875 FPS (1024 SPF)
Compression mode               : Lossy
Delay relative to video        : -21 ms
Stream size                    : 89.0 MiB (9%)
Title                          : GOPISAHI
Language                       : English

Text
Language                       : English

Menu
00:00:00.000                   : en:Chapter 01
00:04:08.457                   : en:Chapter 02
00:09:36.367                   : en:Chapter 03
00:14:30.078                   : en:Chapter 04
00:19:49.897                   : en:Chapter 05
00:24:41.063                   : en:Chapter 06
00:29:45.826                   : en:Chapter 07
00:35:00.598                   : en:Chapter 08
00:39:07.595                   : en:Chapter 09
00:47:28.220                   : en:Chapter 10
00:57:16.224                   : en:Chapter 11
01:02:55.271                   : en:Chapter 12
01:09:26.829                   : en:Chapter 13
01:14:30.299                   : en:Chapter 14
01:21:43.774                   : en:Chapter 15
01:30:10.530                   : en:Chapter 16
01:38:15.515                   : en:Chapter 17
01:44:08.742                   : en:Chapter 18
01:54:07.215                   : en:Chapter 19
02:03:00.290                   : en:Chapter 20