Extraction 2020 x264 720p NF Multi Audio Hindi Tamil Telugu English GOPI SAHI

Extraction (2020)


Tyler Rake, a fearless black market mercenary, embarks on the most deadly extraction of his career when he's enlisted to rescue the kidnapped son of an imprisoned international crime lord.

Director:

Sam Hargrave

Writers:

Joe Russo (based on the graphic novel "Ciudad", from a story by), Joe Russo (script)


7.0/10





Directed bySam Hargrave
Produced by
Screenplay byJoe Russo
Story by
  • Ande Parks
  • Joe Russo
  • Anthony Russo
Based onCiudad
by Ande Parks
Joe Russo
Fernando León González
Starring
Music by
CinematographyNewton Thomas Sigel
Edited by
  • Peter B. Ellis
  • Ruthie Aslan
Production
company
  • AGBO
  • Thematic Entertainment
  • India Take One Productions
  • T.G.I.M. Films
Distributed byNetflix
Release date
  • April 24, 2020 (United States)
Running time
117 minutes
CountryUnited States
LanguageEnglish
Budget$65 million[1]


Extraction 2020 x264 720p NF Multi Audio Hindi Tamil Telugu English GOPI SAHI

Format : Matroska
Format version : Version 4 / Version 2
File size : 1.05 GiB
Duration : 1 h 57 min
Overall bit rate : 1 285 kb/s
Movie name : Extraction 2020 GOPI SAHI

Video
ID : 1
Format : AVC
Format/Info : Advanced Video Codec
Format profile : [email protected]
Format settings : CABAC / 5 Ref Frames
Format settings, CABAC : Yes
Format settings, ReFrames : 5 frames
Codec ID : V_MPEG4/ISO/AVC
Duration : 1 h 57 min
Bit rate : 899 kb/s
Width : 1 280 pixels
Height : 536 pixels
Display aspect ratio : 2.40:1
Frame rate mode : Constant
Frame rate : 24.000 FPS
Color space : YUV
Chroma subsampling : 4:2:0
Bit depth : 8 bits
Scan type : Progressive
Bits/(Pixel*Frame) : 0.055
Stream size : 755 MiB (70%)
Title : GOPI SAHI
Writing library : x264 core 148

Audio #1
Format : AAC
Format/Info : Advanced Audio Codec
Duration : 1 h 57 min
Bit rate : 96.0 kb/s
Channel(s) : 2 channels
Channel positions : Front: L R
Sampling rate : 48.0 kHz
Frame rate : 46.875 FPS (1024 SPF)
Compression mode : Lossy
Delay relative to video : -21 ms
Stream size : 80.1 MiB (7%)
Title : GOPI SAHI
Language : Hindi

Audio #2
Format : AAC
Format/Info : Advanced Audio Codec
Duration : 1 h 57 min
Bit rate : 96.0 kb/s
Channel(s) : 2 channels
Channel positions : Front: L R
Sampling rate : 48.0 kHz
Frame rate : 46.875 FPS (1024 SPF)
Compression mode : Lossy
Delay relative to video : -21 ms
Stream size : 80.0 MiB (7%)
Title : GOPI SAHI
Language : English

Audio #3
Format : AAC
Duration : 1 h 57 min
Bit rate : 96.0 kb/s
Channel(s) : 2 channels
Channel positions : Front: L R
Sampling rate : 48.0 kHz
Frame rate : 46.875 FPS (1024 SPF)
Compression mode : Lossy
Delay relative to video : -21 ms
Stream size : 80.1 MiB (7%)
Title : GOPI SAHI
Language : Tamil

Audio #4
Format : AAC
Format/Info : Advanced Audio Codec
Duration : 1 h 57 min
Bit rate : 96.0 kb/s
Channel(s) : 2 channels
Channel positions : Front: L R
Sampling rate : 48.0 kHz
Frame rate : 46.875 FPS (1024 SPF)
Compression mode : Lossy
Delay relative to video : -21 ms
Stream size : 80.1 MiB (7%)
Title : GOPI SAHI
Language : Telugu

Text #1
Language : English

Text #2
Language : English