Elizabeth The Golden Age 2007 x264 720p Esub BluRay Dual Audio Hindi English GOPI SAHI

Elizabeth: The Golden Age (2007)

A mature Queen Elizabeth endures multiple crises late in her reign including court intrigues, an assassination plot, the Spanish Armada, and romantic disappointments.

Director:

Shekhar Kapur
6.8/10


Directed byShekhar Kapur
Produced by
Written by
Starring
Music by
CinematographyRemi Adefarasin
Edited byJill Bilcock
Production
company
Distributed byUniversal Pictures
Release date
  • 12 October 2007 (United States)
  • 2 November 2007 (United Kingdom)
Running time
114 minutes
Country
  • United Kingdom
  • France
  • Germany
  • United State
Language
  • English
Budget$55 million
Box office$75.8 million




Elizabeth The Golden Age 2007 x264 720p Esub BluRay Dual Audio Hindi English GOPI SAHI

Format                         : Matroska
Format version                 : Version 4
File size                      : 911 MiB
Duration                       : 1 h 54 min
Overall bit rate               : 1 109 kb/s
Movie name                     : Elizabeth The Golden Age 2007 GOPI SAHI

Video
Format                         : AVC
Format/Info                    : Advanced Video Codec
Format profile                 : [email protected]
Format settings                : CABAC / 5 Ref Frames
Format settings, CABAC         : Yes
Format settings, Reference fra : 5 frames
Codec ID                       : V_MPEG4/ISO/AVC
Duration                       : 1 h 54 min
Bit rate                       : 899 kb/s
Width                          : 1 280 pixels
Height                         : 694 pixels
Display aspect ratio           : 1.85:1
Frame rate mode                : Constant
Frame rate                     : 23.976 (24000/1001) FPS
Color space                    : YUV
Chroma subsampling             : 4:2:0
Bit depth                      : 8 bits
Scan type                      : Progressive
Bits/(Pixel*Frame)             : 0.042
Stream size                    : 738 MiB (81%)
Title                          : GOPI SAHI
Writing library                : x264 core 148

Audio #1
Format                         : AAC LC
Format/Info                    : Advanced Audio Codec Low Complexity
Codec ID                       : A_AAC-2
Duration                       : 1 h 54 min
Bit rate                       : 96.0 kb/s
Channel(s)                     : 2 channels
Channel layout                 : L R
Sampling rate                  : 48.0 kHz
Frame rate                     : 46.875 FPS (1024 SPF)
Compression mode               : Lossy
Delay relative to video        : -21 ms
Stream size                    : 79.1 MiB (9%)
Title                          : GOPI SAHI
Language                       : Hindi

Audio #2
Format                         : AAC LC
Duration                       : 1 h 54 min
Bit rate                       : 96.0 kb/s
Channel(s)                     : 2 channels
Channel layout                 : L R
Sampling rate                  : 48.0 kHz
Frame rate                     : 46.875 FPS (1024 SPF)
Compression mode               : Lossy
Delay relative to video        : -21 ms
Stream size                    : 79.2 MiB (9%)
Title                          : GOPI SAHI
Language                       : English

Text #1
Format                         : PGS
Codec ID                       : S_HDMV/PGS
Language                       : English

Text #2
Format                         : PGS
Language                       : English