Dr.No 1962 x264 720p Esub BluRay Dual Audio Hindi English GOPI SAHI

Dr. No (1962)


A resourceful British government agent seeks answers in a case involving the disappearance of a colleague and the disruption of the American space program.

Director:

Terence Young

Writers:

Richard Maibaum (screenplay), Johanna Harwood (screenplay) |2 more credits »
7.3/10
141,598
Directed byTerence Young
Produced byHarry Saltzman
Albert R. Broccoli
Screenplay byRichard Maibaum
Johanna Harwood
Berkely Mather
Based onDr. No
by Ian Fleming
StarringSean Connery
Ursula Andress
Joseph Wiseman
Jack Lord
Music byMonty Norman
CinematographyTed Moore
Edited byPeter R. Hunt
Production
company
Distributed byUnited Artists
Release date
  • 5 October 1962 (United Kingdom)
Running time
109 minutes
CountryUnited States[1]
United Kingdom
Budget$1.1 million
Box office$59.5 million



Dr.No 1962 x264 720p Esub BluRayDual Audio Hindi English GOPI SAHI

Format                         : Matroska
Format version                 : Version 4
File size                      : 880 MiB
Duration                       : 1 h 49 min
Overall bit rate               : 1 119 kb/s
Movie name                     : Dr.No 1962 GOPI SAHI

Video
Format                         : AVC
Format/Info                    : Advanced Video Codec
Format profile                 : [email protected]
Format settings                : CABAC / 5 Ref Frames
Format settings, CABAC         : Yes
Format settings, Reference fra : 5 frames
Codec ID                       : V_MPEG4/ISO/AVC
Duration                       : 1 h 49 min
Bit rate                       : 899 kb/s
Width                          : 1 280 pixels
Height                         : 766 pixels
Display aspect ratio           : 5:3
Frame rate mode                : Constant
Frame rate                     : 23.976 (24000/1001) FPS
Color space                    : YUV
Chroma subsampling             : 4:2:0
Bit depth                      : 8 bits
Scan type                      : Progressive
Bits/(Pixel*Frame)             : 0.038
Stream size                    : 706 MiB (80%)
Title                          : GOPI SAHI
Writing library                : x264 core 148

Audio #1
Format                         : AAC LC
Duration                       : 1 h 49 min
Bit rate                       : 96.0 kb/s
Channel(s)                     : 2 channels
Channel layout                 : L R
Sampling rate                  : 48.0 kHz
Frame rate                     : 46.875 FPS (1024 SPF)
Compression mode               : Lossy
Delay relative to video        : -21 ms
Stream size                    : 75.7 MiB (9%)
Title                          : GOPI SAHI
Language                       : Hindi

Audio #2
Format                         : AAC LC
Duration                       : 1 h 49 min
Bit rate                       : 96.0 kb/s
Channel(s)                     : 2 channels
Channel layout                 : L R
Sampling rate                  : 48.0 kHz
Frame rate                     : 46.875 FPS (1024 SPF)
Compression mode               : Lossy
Delay relative to video        : -21 ms
Stream size                    : 75.7 MiB (9%)
Title                          : GOPI SAHI
Language                       : English

Text #1
Format                         : PGS
Language                       : Hindi

Text #2
Format                         : PGS
Language                       : English

Text #3
Language                       : English