Blockers 2018 x264 720p Esub BluRay Dual Audio English Hindi GOPI SAHI

Blockers (2018)

 
Three parents try to stop their daughters from losing their virginity on prom night.

Director:

Kay Cannon
6.2/10
65,339

Directed byKay Cannon
Produced by
Written by
  • Brian Kehoe
  • Jim Kehoe
Starring
Music byMateo Messina
CinematographyRuss Alsobrook
Edited byStacey Schroeder
Production
company
Distributed byUniversal Pictures[1]
Release date
  • March 10, 2018 (SXSW)
  • April 6, 2018 (United States)
Running time
102 minutes
CountryUnited States
LanguageEnglish
Budget$21 million[2]
Box office$94 million[


Blockers 2018 x264 720p Esub BluRay Dual Audio English Hindi GOPI SAHI

Format                         : Matroska
Format version                 : Version 4
File size                      : 833 MiB
Duration                       : 1 h 41 min
Overall bit rate               : 1 142 kb/s
Movie name                     : Blockers 2018 GOPISAHI

Video
ID                             : 1
Format                         : AVC
Format/Info                    : Advanced Video Codec
Format profile                 : [email protected]
Format settings                : CABAC / 12 Ref Frames
Format settings, CABAC         : Yes
Format settings, Reference fra : 12 frames
Codec ID                       : V_MPEG4/ISO/AVC
Duration                       : 1 h 41 min
Bit rate                       : 899 kb/s
Width                          : 1 280 pixels
Height                         : 538 pixels
Display aspect ratio           : 2.40:1
Frame rate mode                : Constant
Frame rate                     : 23.976 (24000/1001) FPS
Color space                    : YUV
Chroma subsampling             : 4:2:0
Bit depth                      : 8 bits
Scan type                      : Progressive
Bits/(Pixel*Frame)             : 0.054
Stream size                    : 655 MiB (79%)
Title                          : GOPISAHI
Writing library                : x264 core 157 r2935 545de2f

Audio #1
Format                         : AAC LC
Duration                       : 1 h 41 min
Bit rate                       : 96.0 kb/s
Channel(s)                     : 2 channels
Channel layout                 : L R
Sampling rate                  : 48.0 kHz
Frame rate                     : 46.875 FPS (1024 SPF)
Compression mode               : Lossy
Delay relative to video        : -21 ms
Stream size                    : 70.2 MiB (8%)
Title                          : GOPISAHI
Language                       : Hindi

Audio #2
Format                         : AAC LC
Duration                       : 1 h 41 min
Bit rate                       : 96.0 kb/s
Channel(s)                     : 2 channels
Channel layout                 : L R
Sampling rate                  : 48.0 kHz
Frame rate                     : 46.875 FPS (1024 SPF)
Compression mode               : Lossy
Delay relative to video        : -21 ms
Stream size                    : 70.2 MiB (8%)
Title                          : GOPISAHI
Language                       : English

Text #1
Format                         : PGS
Language                       : English

Text #2
Format                         : PGS
Language                       : Spanish

Text #3
Format                         : PGS
Language                       : French

Menu
00:00:00.000                   : en:Chapter 01
00:02:50.086                   : en:Chapter 02
00:10:02.143                   : en:Chapter 03
00:14:50.139                   : en:Chapter 04
00:22:11.955                   : en:Chapter 05
00:26:09.109                   : en:Chapter 06
00:32:02.962                   : en:Chapter 07
00:35:18.449                   : en:Chapter 08
00:40:06.529                   : en:Chapter 09
00:44:33.545                   : en:Chapter 10
00:49:58.245                   : en:Chapter 11
00:55:14.769                   : en:Chapter 12
00:59:26.521                   : en:Chapter 13
01:05:34.472                   : en:Chapter 14
01:10:20.633                   : en:Chapter 15
01:15:47.000                   : en:Chapter 16
01:22:48.213                   : en:Chapter 17
01:26:38.818                   : en:Chapter 18
01:31:15.970                   : en:Chapter 19
01:34:08.559                   : en:Chapter 20




MAGNET

GDRIVE

GDRIVE 2

MULTIUP=HOSTS

MIRRORACE=BAYFILES,AND,ANONFILES

INDISHARE

UPLOADFILES

MEDIAFIRE