Bleeding Steel 2017 x264 720p Esub BluRay Dual Audio English Hindi Telugu Tamil GOPI SAHI

Bleeding Steel (2017)

Ji qi zhi xue (original title)
 
A Special Forces Agent is assigned to protect a scientist and his creation from a sinister gang.

Director:

Leo Zhang

Writers:

Erica Xia-Hou (screenplay by), Siwei Cui (screenplay by) (as Cui Siwei) |1 more credit »
5.2/10
7,533


Traditional機器之血
Simplified机器之血
MandarinJī qì zhī xuè
Directed byLeo Zhang
Produced by
Written by
  • Leo Zhang
  • Erica Xia-Hou
  • Siwei Cui[1]
Starring
Music byFei Peng[1]
CinematographyTony Cheung[1][2]
Edited byKwong Chi-leung[2]
Production
company
Distributed by
  • United Entertainment Partners (China)
Release date
  • 22 December 2017 (China)
Running time
110 minutes[2]
CountryChina
Hong Kong
Language
  • Mandarin
  • English[2]
Box office$49 million[3]


Bleeding Steel 2017 x264 720p Esub BluRay Dual Audio English Hindi Telugu Tamil GOPI SAHI

Format                         : Matroska
Format version                 : Version 4
File size                      : 1 014 MiB
Duration                       : 1 h 50 min
Overall bit rate               : 1 287 kb/s
Movie name                     : Bleeding Steel 2017 GOPI SAHI

Video
Format                         : AVC
Format/Info                    : Advanced Video Codec
Format profile                 : [email protected]
Format settings                : CABAC / 5 Ref Frames
Format settings, CABAC         : Yes
Format settings, Reference fra : 5 frames
Codec ID                       : V_MPEG4/ISO/AVC
Duration                       : 1 h 50 min
Bit rate                       : 899 kb/s
Width                          : 1 280 pixels
Height                         : 536 pixels
Display aspect ratio           : 2.40:1
Frame rate mode                : Constant
Frame rate                     : 23.976 (24000/1001) FPS
Color space                    : YUV
Chroma subsampling             : 4:2:0
Bit depth                      : 8 bits
Scan type                      : Progressive
Bits/(Pixel*Frame)             : 0.055
Stream size                    : 708 MiB (70%)
Title                          : GOPI SAHI
Writing library                : x264 core 148

Audio #1
Format                         : AAC LC
Duration                       : 1 h 49 min
Bit rate                       : 96.0 kb/s
Channel(s)                     : 2 channels
Channel layout                 : L R
Sampling rate                  : 48.0 kHz
Frame rate                     : 46.875 FPS (1024 SPF)
Compression mode               : Lossy
Delay relative to video        : -35 ms
Stream size                    : 75.6 MiB (7%)
Title                          : GOPI SAHI
Language                       : Hindi

Audio #2
Format                         : AAC LC
Duration                       : 1 h 50 min
Bit rate                       : 96.0 kb/s
Channel(s)                     : 2 channels
Channel layout                 : L R
Sampling rate                  : 48.0 kHz
Frame rate                     : 46.875 FPS (1024 SPF)
Compression mode               : Lossy
Delay relative to video        : -64 ms
Stream size                    : 75.6 MiB (7%)
Title                          : GOPI SAHI
Language                       : English

Audio #3
Format                         : AAC LC
Duration                       : 1 h 49 min
Bit rate                       : 96.0 kb/s
Channel(s)                     : 2 channels
Channel layout                 : L R
Sampling rate                  : 48.0 kHz
Frame rate                     : 46.875 FPS (1024 SPF)
Compression mode               : Lossy
Delay relative to video        : -35 ms
Stream size                    : 75.6 MiB (7%)
Title                          : GOPI SAHI
Language                       : Tamil

Audio #4
Format                         : AAC LC
Duration                       : 1 h 49 min
Bit rate                       : 96.0 kb/s
Channel(s)                     : 2 channels
Channel layout                 : L R
Sampling rate                  : 48.0 kHz
Frame rate                     : 46.875 FPS (1024 SPF)
Compression mode               : Lossy
Delay relative to video        : -35 ms
Stream size                    : 75.6 MiB (7%)
Title                          : GOPI SAHI
Language                       : Telugu