Blade Runner 2049 2017 x264 720p Esub BluRay Dual Audio English Hindi GOPI SAHI

Blade Runner 2049 (2017)

Young Blade Runner K's discovery of a long-buried secret leads him to track down former Blade Runner Rick Deckard, who's been missing for thirty years.

Writers:

Hampton Fancher (screenplay by), Michael Green (screenplay by) |2 more credits »

8.0/10
422,696

Directed byDenis Villeneuve
Produced by
Screenplay by
Story byHampton Fancher
Based onCharacters from Do Androids Dream of Electric Sheep?
by Philip K. Dick
Starring
Music by
CinematographyRoger Deakins
Edited byJoe Walker
Production
companies
Distributed by
Release date
  • October 3, 2017 (Dolby Theatre)
  • October 6, 2017 (United States)
Running time
163 minutes[4]
CountryUnited States[5]
Budget$150–185 million[6][7][8]
Box office$260.5 million[9



Blade Runner 2049 2017 x264 720p Esub BluRay Dual Audio English Hindi GOPI SAHI

Format                         : Matroska
Format version                 : Version 4
File size                      : 929 MiB
Duration                       : 2 h 43 min
Overall bit rate               : 795 kb/s
Movie name                     : Blade Runner 2049 2017 GOPISAHI

Video
Format                         : AVC
Format/Info                    : Advanced Video Codec
Format profile                 : [email protected]
Format settings                : CABAC / 12 Ref Frames
Format settings, CABAC         : Yes
Format settings, Reference fra : 12 frames
Codec ID                       : V_MPEG4/ISO/AVC
Duration                       : 2 h 43 min
Bit rate                       : 599 kb/s
Width                          : 1 280 pixels
Height                         : 534 pixels
Display aspect ratio           : 2.40:1
Frame rate mode                : Constant
Frame rate                     : 23.976 (24000/1001) FPS
Color space                    : YUV
Chroma subsampling             : 4:2:0
Bit depth                      : 8 bits
Scan type                      : Progressive
Bits/(Pixel*Frame)             : 0.037
Stream size                    : 700 MiB (75%)
Title                          : GOPISAHI
Writing library                : x264 core 157 r2935 545de2f

Audio #1
Format                         : AAC LC
Duration                       : 2 h 43 min
Bit rate                       : 96.0 kb/s
Channel(s)                     : 2 channels
Channel layout                 : L R
Sampling rate                  : 48.0 kHz
Frame rate                     : 46.875 FPS (1024 SPF)
Compression mode               : Lossy
Delay relative to video        : -64 ms
Stream size                    : 113 MiB (12%)
Title                          : GOPISAHI
Language                       : Hindi

Audio #2
Format                         : AAC LC
Duration                       : 2 h 43 min
Bit rate                       : 96.0 kb/s
Channel(s)                     : 2 channels
Channel layout                 : L R
Sampling rate                  : 48.0 kHz
Frame rate                     : 46.875 FPS (1024 SPF)
Compression mode               : Lossy
Delay relative to video        : -64 ms
Stream size                    : 113 MiB (12%)
Title                          : GOPISAHI
Language                       : English

Text
Language                       : English