Beverly Hills Cop II 1987 Remastered x264 720p Esub BluRay Dual Audio English Hindi GOPI SAHI

Beverly Hills Cop II (1987)

Axel Foley returns to Beverly Hills to help Taggart and Rosewood investigate Chief Bogomil's near-fatal shooting and the series of "alphabet crimes" associated with it.

Director:

Tony Scott

Writers:

Danilo Bach (characters), Daniel Petrie Jr. (characters) |4 more credits »
6.5/10
103,082

Directed byTony Scott
Produced by
Screenplay by
Story by
Based onCharacters
by Danilo Bach and
Daniel Petrie Jr.
Starring
Music byHarold Faltermeyer
CinematographyJeffrey L. Kimball
Edited by
Production
company
Simpson/Bruckheimer Productions
Distributed byParamount Pictures
Release date
  • May 19, 1987 (Los Angeles)
  • May 20, 1987 (United States)
Running time
103 minutes[1]
CountryUnited States
LanguageEnglish
Budget$27 million[2][3]
Box office$300 million[4]








Beverly Hills Cop II 1987 Remastered x264 720p Esub BluRay Dual Audio English Hindi GOPI SAHI

Format                         : Matroska
Format version                 : Version 4
File size                      : 833 MiB
Duration                       : 1 h 42 min
Overall bit rate               : 1 131 kb/s
Movie name                     : Beverly Hills Cop II 1987 Remastered GOPI SAHI

Video
ID                             : 1
Format                         : AVC
Format/Info                    : Advanced Video Codec
Format profile                 : [email protected]
Format settings                : CABAC / 5 Ref Frames
Format settings, CABAC         : Yes
Format settings, Reference fra : 5 frames
Codec ID                       : V_MPEG4/ISO/AVC
Duration                       : 1 h 42 min
Bit rate                       : 899 kb/s
Width                          : 1 280 pixels
Height                         : 544 pixels
Display aspect ratio           : 2.35:1
Frame rate mode                : Constant
Frame rate                     : 23.976 (24000/1001) FPS
Color space                    : YUV
Chroma subsampling             : 4:2:0
Bit depth                      : 8 bits
Scan type                      : Progressive
Bits/(Pixel*Frame)             : 0.054
Stream size                    : 662 MiB (79%)
Title                          : GOPI SAHI
Writing library                : x264 core 148
Encoding settings              : cabac=1 / ref=5 / deblock=1:0:0 / analyse=0x3:0x133 / me=umh / subme=10 / psy=1 / psy_rd=1.00:0.00 / mixed_ref=1 / me_range=24 / chroma_me=1 / trellis=2 / 8x8dct=1 / cqm=0 / deadzone=21,11 / fast_pskip=1 / chroma_qp_offset=-2 / threads=4 / lookahead_threads=1 / sliced_threads=0 / nr=0 / decimate=1 / interlaced=0 / bluray_compat=0 / constrained_intra=0 / bframes=5 / b_pyramid=2 / b_adapt=2 / b_bias=0 / direct=3 / weightb=1 / open_gop=0 / weightp=2 / keyint=240 / keyint_min=24 / scenecut=40 / intra_refresh=0 / rc_lookahead=60 / rc=2pass / mbtree=1 / bitrate=899 / ratetol=1.0 / qcomp=0.60 / qpmin=0 / qpmax=69 / qpstep=4 / cplxblur=20.0 / qblur=0.5 / vbv_maxrate=62500 / vbv_bufsize=78125 / nal_hrd=none / filler=0 / ip_ratio=1.40 / aq=1:1.00
Language                       : English
Default                        : Yes
Forced                         : No
Color range                    : Limited
Color primaries                : BT.709
Transfer characteristics       : BT.709
Matrix coefficients            : BT.709

Audio #1
ID                             : 2
Format                         : AAC LC
Format/Info                    : Advanced Audio Codec Low Complexity
Codec ID                       : A_AAC-2
Duration                       : 1 h 42 min
Bit rate                       : 96.0 kb/s
Channel(s)                     : 2 channels
Channel layout                 : L R
Sampling rate                  : 48.0 kHz
Frame rate                     : 46.875 FPS (1024 SPF)
Compression mode               : Lossy
Delay relative to video        : -21 ms
Stream size                    : 71.0 MiB (9%)
Title                          : GOPI SAHI
Language                       : Hindi
Default                        : Yes
Forced                         : No

Audio #2
ID                             : 3
Format                         : AAC LC
Format/Info                    : Advanced Audio Codec Low Complexity
Codec ID                       : A_AAC-2
Duration                       : 1 h 42 min
Bit rate                       : 96.0 kb/s
Channel(s)                     : 2 channels
Channel layout                 : L R
Sampling rate                  : 48.0 kHz
Frame rate                     : 46.875 FPS (1024 SPF)
Compression mode               : Lossy
Delay relative to video        : -21 ms
Stream size                    : 71.1 MiB (9%)
Title                          : GOPI SAHI
Language                       : English
Default                        : No
Forced                         : No

Text #1
ID                             : 4
Format                         : PGS
Muxing mode                    : zlib
Codec ID                       : S_HDMV/PGS
Codec ID/Info                  : Picture based subtitle format used on BDs/HD-DVDs
Duration                       : 1 h 42 min
Bit rate                       : 62.9 kb/s
Count of elements              : 2568
Stream size                    : 45.9 MiB (6%)
Title                          : GOPI SAHI
Language                       : English
Default                        : Yes
Forced                         : Yes

Text #2
ID                             : 5
Format                         : PGS
Muxing mode                    : zlib
Codec ID                       : S_HDMV/PGS
Codec ID/Info                  : Picture based subtitle format used on BDs/HD-DVDs
Duration                       : 1 h 42 min
Bit rate                       : 66.9 kb/s
Count of elements              : 2816
Stream size                    : 48.9 MiB (6%)
Title                          : GOPI SAHI
Language                       : English
Default                        : No
Forced                         : No

Menu
00:00:00.000                   : :Chapter 1
00:02:51.838                   : :Chapter 2
00:09:17.057                   : :Chapter 3
00:14:30.286                   : :Chapter 4
00:22:11.622                   : :Chapter 5
00:29:30.102                   : :Chapter 6
00:46:25.741                   : :Chapter 7
00:52:24.933                   : :Chapter 8
01:02:05.722                   : :Chapter 9
01:15:37.366                   : :Chapter 10
01:23:45.521                   : :Chapter 11
01:36:35.790                   : :Chapter 12
01:38:53.386                   : :Chapter 13