Bandidas 2006 x264 720p Esub BluRay Dual Audio English Hindi GOPI SAHI

Bandidas (2006)


In turn-of-the-century Mexico, two very different women become a bank-robbing duo in an effort to combat a ruthless enforcer terrorizing their town.


5.7/10

Directed byJoachim Rønning
Espen Sandberg
Produced byLuc Besson
Written byLuc Besson
Robert Mark Kamen
StarringSalma Hayek
Penélope Cruz
Steve Zahn
Sam Shepard
Dwight Yoakam
Ismael 'East' Carlo
Music byÉric Serra
CinematographyThierry Arbogast
Edited byFrédéric Thoraval
Production
companies
Distributed by20th Century Fox
Release date
  • 3 February 2006
Running time
93 minutes
CountryFrance
Mexico
United States
LanguageEnglish
Spanish
French
Budget$35 million
Box office$18.4 million



Bandidas 2006 x264 720p Esub BluRay Dual Audio English Hindi GOPI SAHI

Format                         : Matroska
Format version                 : Version 4
File size                      : 732 MiB
Duration                       : 1 h 32 min
Overall bit rate               : 1 103 kb/s
Movie name                     : Bandidas  GOPI SAHI

Video
Format                         : AVC
Format/Info                    : Advanced Video Codec
Format profile                 : [email protected]
Format settings                : CABAC / 5 Ref Frames
Format settings, CABAC         : Yes
Format settings, Reference fra : 5 frames
Codec ID                       : V_MPEG4/ISO/AVC
Duration                       : 1 h 32 min
Bit rate                       : 899 kb/s
Width                          : 1 280 pixels
Height                         : 542 pixels
Display aspect ratio           : 2.35:1
Frame rate mode                : Constant
Frame rate                     : 23.976 (24000/1001) FPS
Color space                    : YUV
Chroma subsampling             : 4:2:0
Bit depth                      : 8 bits
Scan type                      : Progressive
Bits/(Pixel*Frame)             : 0.054
Stream size                    : 596 MiB (81%)
Title                          : GOPI SAHI
Writing library                : x264 core 148

Audio #1
Format                         : AAC LC
Duration                       : 1 h 32 min
Bit rate                       : 96.0 kb/s
Channel(s)                     : 2 channels
Channel layout                 : L R
Sampling rate                  : 48.0 kHz
Frame rate                     : 46.875 FPS (1024 SPF)
Compression mode               : Lossy
Delay relative to video        : -21 ms
Stream size                    : 64.0 MiB (9%)
Title                          : GOPI SAHI
Language                       : Hindi

Audio #2
Format                         : AAC LC
Duration                       : 1 h 32 min
Bit rate                       : 96.0 kb/s
Channel(s)                     : 2 channels
Channel layout                 : L R
Sampling rate                  : 48.0 kHz
Frame rate                     : 46.875 FPS (1024 SPF)
Compression mode               : Lossy
Delay relative to video        : -21 ms
Stream size                    : 64.1 MiB (9%)
Title                          : GOPI SAHI
Language                       : English

Text
Language                       : English

Menu
00:00:00.000                   : :Chapter 1
00:07:05.383                   : :Chapter 2
00:14:03.760                   : :Chapter 3
00:21:37.546                   : :Chapter 4
00:30:19.735                   : :Chapter 5
00:38:26.471                   : :Chapter 6
00:48:15.309                   : :Chapter 7
00:56:51.867                   : :Chapter 8
01:05:44.566                   : :Chapter 9
01:22:45.544                   : :Chapter 10