Bamfaad 2020 x264 720p HD Hindi GOPI SAHI

A passionate love story set in Allahabad between Naate and Neelam who meet accidentally and fall in love. They make brave choices and go through a path of love and loss to be with each other.

Director:

Ranjan Chandel

7.0/10
59
 Bamfaad 2020 x264 720p HD Hindi GOPI SAHI

Format                         : Matroska
Format version                 : Version 4
File size                      : 726 MiB
Duration                       : 1 h 41 min
Overall bit rate               : 997 kb/s
Movie name                     : Bamfaad 2020 GOPISAHI

Video
Format                         : AVC
Format/Info                    : Advanced Video Codec
Format profile                 : [email protected]
Format settings                : CABAC / 5 Ref Frames
Format settings, CABAC         : Yes
Format settings, Reference fra : 5 frames
Codec ID                       : V_MPEG4/ISO/AVC
Duration                       : 1 h 41 min
Bit rate                       : 899 kb/s
Width                          : 1 280 pixels
Height                         : 546 pixels
Display aspect ratio           : 2.35:1
Frame rate mode                : Constant
Frame rate                     : 25.000 FPS
Color space                    : YUV
Chroma subsampling             : 4:2:0
Bit depth                      : 8 bits
Scan type                      : Progressive
Bits/(Pixel*Frame)             : 0.051
Stream size                    : 654 MiB (90%)
Title                          : GOPISAHI
Writing library                : x264 core 157 r2935 545de2f

Audio
Format                         : AAC LC
Duration                       : 1 h 41 min
Bit rate                       : 96.0 kb/s
Channel(s)                     : 2 channels
Channel layout                 : L R
Sampling rate                  : 48.0 kHz
Frame rate                     : 46.875 FPS (1024 SPF)
Compression mode               : Lossy
Delay relative to video        : -54 ms
Stream size                    : 70.0 MiB (10%)
Title                          : GOPISAHI
Language                       : Hindi