Baby Driver 2017 x264 720p Esub BluRay Dual Audio English Hindi GOPI SAHI

Baby Driver (2017)

 
After being coerced into working for a crime boss, a young getaway driver finds himself taking part in a heist doomed to fail.

Director:

Edgar Wright

Writer:

Edgar Wright

7.6/10
404,778
Directed byEdgar Wright
Produced by
Written byEdgar Wright
Starring
Music bySteven Price
CinematographyBill Pope
Edited by
Production
companies
Distributed bySony Pictures Releasing
Release date
  • March 11, 2017 (SXSW)
  • June 28, 2017 (US and UK)
Running time
113 minutes[1]
Country
  • United States[1][2]
  • United Kingdom
LanguageEnglish
Budget$34 million[3]
Box office$226.9 million[4]


Baby Driver 2017 Baby Driver 2017 x264 720p Esub BluRay Dual Audio English Hindi GOPI SAHI

Format                         : Matroska
Format version                 : Version 4
File size                      : 883 MiB
Duration                       : 1 h 52 min
Overall bit rate               : 1 095 kb/s
Movie name                     : Baby Driver 2017 GOPISAHI

Video
Format                         : AVC
Format/Info                    : Advanced Video Codec
Format profile                 : [email protected]
Format settings                : CABAC / 12 Ref Frames
Format settings, CABAC         : Yes
Format settings, Reference fra : 12 frames
Codec ID                       : V_MPEG4/ISO/AVC
Duration                       : 1 h 52 min
Bit rate                       : 899 kb/s
Width                          : 1 280 pixels
Height                         : 534 pixels
Display aspect ratio           : 2.40:1
Frame rate mode                : Constant
Frame rate                     : 23.976 (24000/1001) FPS
Color space                    : YUV
Chroma subsampling             : 4:2:0
Bit depth                      : 8 bits
Scan type                      : Progressive
Bits/(Pixel*Frame)             : 0.055
Stream size                    : 725 MiB (82%)
Title                          : GOPISAHI
Writing library                : x264 core 157 r2935 545de2f

Audio #1
Format                         : AAC LC
Duration                       : 1 h 52 min
Bit rate                       : 96.0 kb/s
Channel(s)                     : 2 channels
Channel layout                 : L R
Sampling rate                  : 48.0 kHz
Frame rate                     : 46.875 FPS (1024 SPF)
Compression mode               : Lossy
Delay relative to video        : -21 ms
Stream size                    : 77.6 MiB (9%)
Title                          : GOPISAHI
Language                       : Hindi

Audio #2
Format                         : AAC LC
Duration                       : 1 h 52 min
Bit rate                       : 96.0 kb/s
Channel(s)                     : 2 channels
Channel layout                 : L R
Sampling rate                  : 48.0 kHz
Frame rate                     : 46.875 FPS (1024 SPF)
Compression mode               : Lossy
Delay relative to video        : -21 ms
Stream size                    : 77.8 MiB (9%)
Title                          : GOPISAHI
Language                       : English

Text
Language                       : English