Anti Matter 2016 720p x264 Esub Dual Audio English Hindi GOPI SAHI

Anti Matter (2016)

 
A scientist faces the question of what makes us whole and if there is a part of us that is not part of this physical world when she discovers how to travel through a worm hole.

Director:

Keir Burrows

5.8/10
4,334



Anti Matter 2016 720p x264 Esub Dual Audio English Hindi GOPI SAHI

Format                                   : Matroska
Format version                           : Version 4 / Version 2
File size                                : 830 MiB
Duration                                 : 1 h 45 min
Overall bit rate                         : 1 095 kb/s
Movie name                               : Anti Matter 2016 GOPI SAHI

Video
Format                                   : AVC
Format/Info                              : Advanced Video Codec
Format profile                           : [email protected]
Format settings                          : CABAC / 5 Ref Frames
Format settings, CABAC                   : Yes
Format settings, ReFrames                : 5 frames
Codec ID                                 : V_MPEG4/ISO/AVC
Duration                                 : 1 h 45 min
Bit rate                                 : 899 kb/s
Width                                    : 1 280 pixels
Height                                   : 542 pixels
Display aspect ratio                     : 2.35:1
Frame rate mode                          : Constant
Frame rate                               : 23.976 (24000/1001) FPS
Color space                              : YUV
Chroma subsampling                       : 4:2:0
Bit depth                                : 8 bits
Scan type                                : Progressive
Bits/(Pixel*Frame)                       : 0.054
Stream size                              : 681 MiB (82%)
Title                                    : GOPI SAHI
Writing library                          : x264 core 148

Audio #1
Format                                   : AAC
Format/Info                              : Advanced Audio Codec
Format profile                           : LC
Codec ID                                 : A_AAC-2
Duration                                 : 1 h 45 min
Bit rate                                 : 96.0 kb/s
Channel(s)                               : 2 channels
Channel positions                        : Front: L R
Sampling rate                            : 48.0 kHz
Frame rate                               : 46.875 FPS (1024 SPF)
Compression mode                         : Lossy
Delay relative to video                  : -8 ms
Stream size                              : 73.3 MiB (9%)
Title                                    : GOPI SAHI
Language                                 : Hindi

Audio #2
Format                                   : AAC
Duration                                 : 1 h 45 min
Bit rate                                 : 96.0 kb/s
Channel(s)                               : 2 channels
Channel positions                        : Front: L R
Sampling rate                            : 48.0 kHz
Frame rate                               : 46.875 FPS (1024 SPF)
Compression mode                         : Lossy
Delay relative to video                  : -21 ms
Stream size                              : 73.1 MiB (9%)
Title                                    : GOPI SAHI
Language                                 : English

Text
Language                                 : English

Menu
00:00:00.000                             : :1
00:11:28.938                             : :2
00:24:22.795                             : :3
00:32:42.043                             : :4
00:43:49.335                             : :5
00:55:21.944                             : :6
01:06:53.051                             : :7
01:16:26.373                             : :8
01:26:06.870                             : :9
01:33:19.052                             : :10
01:44:32.558                             : :11