Angrezi Medium 2020 x264 720p Esub HD Hindi GOPI SAHI

English Medium (2020)

Angrezi Medium (original title)

7.7/10
2,369

When his daughter decides to further her studies in London, a hardworking Haryanvi businessman does everything in power to make her dreams come true.

Director:

Homi Adajania

Directed byHomi Adajania
Produced byDinesh Vijan
Jyoti Deshpande
Written byBhavesh Mandalia
Gaurav Shukla
Vinay Chhawall
Sara Bodinar
StarringIrrfan Khan
Kareena Kapoor Khan
Radhika Madan
Deepak Dobriyal
Music bySachin-Jigar
Tanishk Bagchi
CinematographyAnil Mehta
Edited byA. Sreekar Prasad
Production
company
Maddock Films
London Calling Production
Distributed byPen India Limited
Jio Studios
Release date
  • 13 March 2020
Running time
145 minutes[1]
CountryIndia
LanguageHindi
Budget36 crore[2][better source needed]
Box officeest. 13.54 crore[3



Angrezi Medium 2020 x264 720p Esub HD Hindi GOPI SAHI

Format                         : Matroska
Format version                 : Version 4
File size                      : 1.01 GiB
Duration                       : 2 h 25 min
Overall bit rate               : 998 kb/s
Movie name                     : Angrezi Medium 2020 GOPISAHI

Video
Format                         : AVC
Format/Info                    : Advanced Video Codec
Format profile                 : [email protected]
Format settings                : CABAC / 5 Ref Frames
Format settings, CABAC         : Yes
Format settings, Reference fra : 5 frames
Codec ID                       : V_MPEG4/ISO/AVC
Duration                       : 2 h 25 min
Bit rate                       : 899 kb/s
Width                          : 1 280 pixels
Height                         : 536 pixels
Display aspect ratio           : 2.40:1
Frame rate mode                : Constant
Frame rate                     : 24.000 FPS
Color space                    : YUV
Chroma subsampling             : 4:2:0
Bit depth                      : 8 bits
Scan type                      : Progressive
Bits/(Pixel*Frame)             : 0.055
Stream size                    : 935 MiB (90%)
Title                          : GOPISAHI
Writing library                : x264 core 157 r2935 545de2f

Audio
Format                         : AAC LC
Duration                       : 2 h 25 min
Bit rate                       : 96.0 kb/s
Channel(s)                     : 2 channels
Channel layout                 : L R
Sampling rate                  : 48.0 kHz
Frame rate                     : 46.875 FPS (1024 SPF)
Compression mode               : Lossy
Delay relative to video        : -21 ms
Stream size                    : 101 MiB (10%)
Title                          : GOPISAHI

Text
Language                       : English