Action Point 2018 x264 720p Esub BluRay Dual Audio English Hindi GOPI SAHI

Action Point (2018)

R | |Comedy |1 June 2018 (USA) 

A daredevil designs and operates his own theme park with his friends.

Director:

Tim Kirkby

Writers:

John Altschuler (screenplay by), Dave Krinsky (screenplay by) |5 more credits »
5.1/10
8,760

Directed byTim Kirkby
Produced by
Screenplay by
Story by
  • Johnny Knoxville
  • Derek Freda
  • John Altschuler
  • Dave Krinsky
  • Mike Judge
Based on
  • The Most Insane Amusement Park Ever
  • by Matt Robertson
Starring
Music by
CinematographyMichael Snyman
Edited by
  • Matthew Kosinski
  • Nicholas Monsour
Production
company
Distributed byParamount Pictures
Release date
  • June 1, 2018 (United States)
Running time
85 minutes[1]
CountryUnited States
LanguageEnglish
Budget$19 million[2]
Box office$5.1 million[2]



Action Point 2018 x264 720p Esub BluRay Dual Audio English Hindi GOPI SAHI

Format                         : Matroska
Format version                 : Version 4
File size                      : 662 MiB
Duration                       : 1 h 25 min
Overall bit rate               : 1 087 kb/s
Movie name                     : Action Point 2018 GOPISAHI

Video
Format                         : AVC
Format/Info                    : Advanced Video Codec
Format profile                 : [email protected]
Format settings                : CABAC / 12 Ref Frames
Format settings, CABAC         : Yes
Format settings, Reference fra : 12 frames
Codec ID                       : V_MPEG4/ISO/AVC
Duration                       : 1 h 24 min
Bit rate                       : 899 kb/s
Width                          : 1 280 pixels
Height                         : 534 pixels
Display aspect ratio           : 2.40:1
Frame rate mode                : Constant
Frame rate                     : 23.976 (24000/1001) FPS
Color space                    : YUV
Chroma subsampling             : 4:2:0
Bit depth                      : 8 bits
Scan type                      : Progressive
Bits/(Pixel*Frame)             : 0.055
Stream size                    : 544 MiB (82%)
Title                          : GOPISAHI
Writing library                : x264 core 157 r2935 545de2f

Audio #1
Format                         : AAC LC
Duration                       : 1 h 25 min
Bit rate                       : 96.0 kb/s
Channel(s)                     : 2 channels
Channel layout                 : L R
Sampling rate                  : 48.0 kHz
Frame rate                     : 46.875 FPS (1024 SPF)
Compression mode               : Lossy
Delay relative to video        : -55 ms
Stream size                    : 58.2 MiB (9%)
Title                          : GOPISAHI
Language                       : Hindi

Audio #2
Format                         : AAC LC
Duration                       : 1 h 24 min
Bit rate                       : 96.0 kb/s
Channel(s)                     : 2 channels
Channel layout                 : L R
Sampling rate                  : 48.0 kHz
Frame rate                     : 46.875 FPS (1024 SPF)
Compression mode               : Lossy
Delay relative to video        : -64 ms
Stream size                    : 58.2 MiB (9%)
Title                          : GOPISAHI
Language                       : English

Text
Language                       : English