A View to a Kill 1985 x264 720p Esub BluRay Dual Audio English Hindi GOPI SAHI

A View to a Kill (1985)

PG | |Action, Adventure, Thriller |24 May 1985 (USA) 
 
The recovery of a microchip off the body of a fellow agent, leads James Bond to a mad industrialist who plans to create a worldwide microchip monopoly by destroying California's Silicon Valley.

Director:

John Glen

Writers:

Richard Maibaum (screenplay), Michael G. Wilson (screenplay)
6.4/10
84,447

Directed byJohn Glen
Produced byAlbert R. Broccoli
Michael G. Wilson
Screenplay byRichard Maibaum
Michael G. Wilson
Based onJames Bond
by Ian Fleming
Starring
Music byJohn Barry
CinematographyAlan Hume
Edited byPeter Davies
Production
company
Distributed byMGM/UA Entertainment Co. (United States)
United International Pictures (International)
Release date
  • 22 May 1985 (San Francisco, premiere)
  • 13 June 1985 (United Kingdom)
Running time
131 minutes
CountryUnited Kingdom
United States
LanguageEnglish
Budget$30 million[1]
Box office$152.4 million

A View to a Kill 1985 x264 720p Esub BluRay Dual Audio English Hindi GOPI SAHI

 Format                         : Matroska
Format version                 : Version 4
File size                      : 1.01 GiB
Duration                       : 2 h 11 min
Overall bit rate               : 1 101 kb/s
Movie name                     : A View to a Kill 1985 GOPI SAHI

Video
Format                         : AVC
Format/Info                    : Advanced Video Codec
Format profile                 : [email protected]
Format settings                : CABAC / 5 Ref Frames
Format settings, CABAC         : Yes
Format settings, Reference fra : 5 frames
Codec ID                       : V_MPEG4/ISO/AVC
Duration                       : 2 h 11 min
Bit rate                       : 899 kb/s
Width                          : 1 280 pixels
Height                         : 544 pixels
Display aspect ratio           : 2.35:1
Frame rate mode                : Constant
Frame rate                     : 23.976 (24000/1001) FPS
Color space                    : YUV
Chroma subsampling             : 4:2:0
Bit depth                      : 8 bits
Scan type                      : Progressive
Bits/(Pixel*Frame)             : 0.054
Stream size                    : 844 MiB (82%)
Title                          : GOPI SAHI
Writing library                : x264 core 148

Audio #1
Format                         : AAC LC
Duration                       : 2 h 11 min
Bit rate                       : 96.0 kb/s
Channel(s)                     : 2 channels
Channel layout                 : L R
Sampling rate                  : 48.0 kHz
Frame rate                     : 46.875 FPS (1024 SPF)
Compression mode               : Lossy
Delay relative to video        : -21 ms
Stream size                    : 90.5 MiB (9%)
Title                          : GOPI SAHI
Language                       : Hindi

Audio #2
Format                         : AAC LC
Duration                       : 2 h 11 min
Bit rate                       : 96.0 kb/s
Channel(s)                     : 2 channels
Channel layout                 : L R
Sampling rate                  : 48.0 kHz
Frame rate                     : 46.875 FPS (1024 SPF)
Compression mode               : Lossy
Delay relative to video        : -21 ms
Stream size                    : 90.4 MiB (9%)
Title                          : GOPI SAHI
Language                       : English

Text
Format                         : PGS
Language                       : English